<?xml version="1.0" standalone="no"?>
<!DOCTYPE svg PUBLIC "-//W3C//DTD SVG 1.1//EN" "../../../../www.w3.org/Graphics/SVG/1.1/DTD/svg11.dtd" >
<svg xmlns="http://www.w3.org/2000/svg">
<metadata>
This is a custom SVG font generated by IcoMoon.
<iconset grid="16"></iconset>
</metadata>
<defs>
<font id="icomoon" horiz-adv-x="512" >
<font-face units-per-em="512" ascent="480" descent="-32" />
<missing-glyph horiz-adv-x="512" />
<glyph unicode="&#xe010;" d="M 512,176L 416,272L 416,416L 352,416L 352,336L 256,432L0,176L0,160L 64,160L 64,0L 224,0L 224,96L 288,96L 288,0L 448,0L 448,160L 512,160 z"  />
<glyph unicode="&#xe011;" d="M 256,448L0,192l 48-48l 48,48l 32-192l 96,0 l0,96 l 64,0 l0-96 l 96,0 l 32,192l 48-48l 48,48L 256,448z M 256,242.746
		c-24.994,0-45.256,20.26-45.256,45.254s 20.262,45.255, 45.256,45.255c 24.992,0, 45.255-20.262, 45.255-45.255
		C 301.255,263.006, 280.992,242.746, 256,242.746z"  />
<glyph unicode="&#xe012;" d="M0-32l 256,0 L 256,480 L0,480 L0-32 z M 160,416l 64,0 l0-64 l-64,0 L 160,416 z M 160,288l 64,0 l0-64 l-64,0 L 160,288 z M 160,160l 64,0 l0-64 l-64,0 L 160,160 z M 32,416l 64,0 l0-64 L 32,352 L 32,416 z M 32,288
			l 64,0 l0-64 L 32,224 L 32,288 z M 32,160l 64,0 l0-64 L 32,96 L 32,160 zM 288,320L 512,320L 512,288L 288,288zM 288-32L 352-32L 352,96L 448,96L 448-32L 512-32L 512,256L 288,256 		z"  />
<glyph unicode="&#xe013;" d="M 448,352L 448,416 L0,416 l0-352 c0-17.673, 14.327-32, 32-32l 432,0 c 26.511,0, 48,21.489, 48,48L 512,352 L 448,352 z M 416,64L 32,64 L 32,384 l 384,0 L 416,64 zM 64,320L 384,320L 384,288L 64,288zM 256,256L 384,256L 384,224L 256,224zM 256,192L 384,192L 384,160L 256,160zM 256,128L 352,128L 352,96L 256,96zM 64,256L 224,256L 224,96L 64,96z"  />
<glyph unicode="&#xe014;" d="M 432,480 C 476.182,480 512,444.183 512,400 C 512,381.99 506.045,365.371 496,352 L 464,320 L 352,432019E875AAD"  />
<glyph unicode="&#xe015;" d="M 192,160l 64,32L 480,416l-32,32L 224,224L 192,160z M 144.65,46.451c-15.816,33.364-32.833,50.381-66.198,66.197L 128,249.044
	L 192,288L 384,480l-96,0 L 96,288L0-32l 320,96l 192,192l0,96 L 320,160l-38.956-64"  />
<glyph unicode="&#xe016;" d="M 192,186.667c0,0, 101.972,61.18, 159.383,37.013c 11.901,18.134, 23.624,37.668, 35.101,57.611
	C 330.321,295.051, 256,282.667, 256,282.667s 95.106,57.061, 153.333,39.2c 11.675,21.054, 23.027,41.821, 33.978,61.152
	C 396.923,386.153, 352,378.667, 352,378.667s 59.574,35.744, 113.289,41.799C 482.188,447.896, 497.874,469.406, 512,480C 231.5,480, 64,160,0-32
	l 32,0 l 96,160c0,0, 32-32, 128,0c 22.737,7.579, 45.474,28.626, 67.786,56.967C 267.478,199.244, 192,186.667, 192,186.667z"  />
<glyph unicode="&#xe017;" d="M 480.002,335.997L 368.003,447.996L 400.003,479.996L 512.002,367.997zM 448,304 L 432,128 C 288,128 80-32 80-32 L 53.435-5.435 L 190.267,131.397 C 195.754,129.213 201.734,128 208,128 C 234.51,128 256,149.49 256,176 C 256,202.51 234.51,224 208,224 C 181.49,224 160,202.51 160,176 C 160,169.734 161.213,163.755 163.397,158.267 L 26.565,21.435 L 0,48 C 0,48 160,256 160,400 L 336,416 L 448,304 Z"  />
<glyph unicode="&#xe018;" d="M 192,384 C 315.712,384 416,283.711 416,160 L 368,160 C 368,207.012 349.693,251.209 316.451,284.451 0269C74A8B"  />
<glyph unicode="&#xe019;" d="M 447.97,163.249c-0.006,0.353-0.015,0.701-0.021,1.053c-0.016,0.714-0.035,1.427-0.059,2.14C 442.875,324.266, 256,480, 256,480
		S 69.123,324.266, 64.11,166.439c-0.022-0.715-0.044-1.426-0.060-2.141c-0.007-0.352-0.015-0.701-0.021-1.053
		c-0.018-1.080-0.028-2.162-0.028-3.248c0-1.184, 0.014-2.361, 0.035-3.539c 0.002-0.098, 0.003-0.195, 0.007-0.293
		C 66.082,51.899, 151.241-32, 256-32c 104.758,0, 189.916,83.899, 191.959,188.168c 0.002,0.098, 0.004,0.196, 0.005,0.293
		c 0.021,1.178, 0.036,2.357, 0.036,3.539C 448,161.086, 447.988,162.168, 447.97,163.249z M 383.975,157.63l-0.004-0.203
		c-0.659-33.643-14.266-65.167-38.313-88.774C 321.587,45.017, 289.743,32, 256,32c-6.231,0-12.397,0.447-18.462,1.319
		c 69.528,41.423, 116.108,117.352, 116.108,204.161c0,9.728-0.59,19.317-1.726,28.74c 20.136-36.97, 31.032-71.4, 32.001-101.813
		l 0.002-0.072c 0.016-0.474, 0.026-0.946, 0.039-1.422l 0.014-0.724C 383.99,161.461, 384,160.73, 384,160
		C 384,159.208, 383.99,158.419, 383.975,157.63z"  />
<glyph unicode="&#xe01a;" d="M 512,192L 512,384 l-96,0 L 416,416 c0,17.6-14.4,32-32,32L 32,448 C 14.4,448,0,433.6,0,416l0-96 c0-17.6, 14.4-32, 32-32l 352,0 c 17.6,0, 32,14.4, 32,32l0,32 l 64,0 
	l0-128 L 192,224 l0-64 l-16,0 c-8.837,0-16-7.163-16-16l0-160 c0-8.837, 7.163-16, 16-16l 64,0 c 8.837,0, 16,7.163, 16,16L 256,144 c0,8.837-7.163,16-16,16l-16,0 l0,32 
	L 512,192 z M 384,384L 32,384 L 32,416 l 352,0 L 384,384 z"  />
<glyph unicode="&#xe01b;" d="M 448,384 L 64,384 L 64,64 L 448,64 L 448,384 Z M 512,448 L 512,448 L 512,0 L 0,0 L 0,448 L 512,448 ZM 416,96 L 96,96 L 96,160 L 192,320 L 323.5,160 L 416,224 L 416,192 ZM 320,304A48,48 2700 1 1 416,304A48,48 2700 1 1 320,304z"  />
<glyph unicode="&#xe01c;" d="M0,416l0-416 l 512,0 L 512,416 L0,416 z M 480,32L 32,32 L 32,384 l 448,0 L 480,32 zM 352,304A48,48 2700 1 1 448,304A48,48 2700 1 1 352,304zM 448,64 L 64,64 L 160,320 L 288,160 L 352,208 Z"  />
<glyph unicode="&#xe01d;" d="M 64,352l0-320 l 448,0 L 512,352 L 64,352 z M 480,85.333L 416,192l-72.533-60.444L 288,224L 96,64L 96,320 l 384,0 L 480,85.333 zM 128,240A48,48 7740 1 1 224,240A48,48 7740 1 1 128,240zM 448,416L0,416L0,96L 32,96L 32,384L 448,384 	z"  />
<glyph unicode="&#xe01e;" d="M 152,176c0-57.438, 46.562-104, 104-104s 104,46.562, 104,104s-46.562,104-104,104S 152,233.438, 152,176z M 480,352L 368,352 
	c-8,32-16,64-48,64L 192,416 c-32,0-40-32-48-64L 32,352 c-17.6,0-32-14.4-32-32l0-288 c0-17.6, 14.4-32, 32-32l 448,0 c 17.6,0, 32,14.4, 32,32L 512,320 
	C 512,337.6, 497.6,352, 480,352z M 256,34c-78.425,0-142,63.574-142,142c0,78.425, 63.575,142, 142,142c 78.426,0, 142-63.575, 142-142
	C 398,97.574, 334.427,34, 256,34z M 480,256l-64,0 l0,32 l 64,0 L 480,256 z"  />
<glyph unicode="&#xe01f;" d="M 160,384 L 512,480 L 512,448 L 512,384 L 512,112 C 512,67.817 461.855,32 400,32 C 338.145,32 288,67.817 288,112 C 288,156.183 338.145,192 400,192 C 417.179,192 433.451,189.234 448,184.297 L 448,349.091 L 224,288 L 224,48 C 224,3.817 173.856-32 112-32 C 50.144-32 0,3.817 0,48 C 0,92.183 50.144,128 112,128 C 129.179,128 145.451,125.234 160,120.297 L 160,288 L 160,384 Z"  />
<glyph unicode="&#xe020;" d="M 96,190.857l0-221.715 c 5.227-0.748, 10.567-1.143, 16-1.143l 16,0 L 128,192 l-16,0 C 106.567,192, 101.227,191.605, 96,190.857zM 384,192l0-224 l 16,0 c 5.434,0, 10.773,0.395, 16,1.143L 416,190.857 c-5.227,0.748-10.566,1.143-16,1.143L 384,192 zM 512,224C 512,365.385, 397.385,480, 256,480S0,365.385,0,224c0-30.709, 5.414-60.153, 15.328-87.437C 5.592,119.962,0,100.637,0,80
		c0-44.677, 26.163-83.239, 64-101.216L 64,181.216 c-10.063-4.781-19.29-11.030-27.429-18.452C 33.575,177.374, 32,192.503, 32,208
		C 32,331.712, 132.288,432, 256,432s 224-100.288, 224-224c0-15.497-1.574-30.626-4.571-45.236c-8.14,7.422-17.365,13.671-27.429,18.452
		l0-202.432 c 37.838,17.977, 64,56.539, 64,101.216c0,20.637-5.592,39.962-15.328,56.563C 506.586,163.847, 512,193.291, 512,224z"  />
<glyph unicode="&#xe021;" d="M 490.594,399.946C 418.778,410.271, 339.428,416, 256.001,416c-83.43,0-162.778-5.729-234.597-16.054
	C 7.639,346.083,0,286.571,0,224c0-62.57, 7.639-122.083, 21.404-175.945C 93.223,37.729, 172.572,32, 256.001,32
	c 83.427,0, 162.776,5.729, 234.593,16.055C 504.36,101.917, 512,161.43, 512,224C 512,286.571, 504.36,346.083, 490.594,399.946z
	 M 192.001,128L 192.001,320 l 160-96L 192.001,128z"  />
<glyph unicode="&#xe022;" d="M0,416l0-384 l 512,0 L 512,416 L0,416 z M 96,64L 32,64 l0,64 l 64,0 L 96,64 z M 96,192L 32,192 l0,64 l 64,0 L 96,192 z M 96,320L 32,320 L 32,384 l 64,0 L 96,320 z M 384,64L 128,64 L 128,384 l 256,0 L 384,64 z
		 M 480,64l-64,0 l0,64 l 64,0 L 480,64 z M 480,192l-64,0 l0,64 l 64,0 L 480,192 z M 480,320l-64,0 L 416,384 l 64,0 L 480,320 zM 192,320L 192,128L 320,224 	z"  />
<glyph unicode="&#xe023;" d="M 192,336A80,80 10980 1 1 352,336A80,80 10980 1 1 192,336zM0,336A80,80 10980 1 1 160,336A80,80 10980 1 1 0,336zM 384,176l0,48 c0,17.6-14.4,32-32,32l-80,0 L 80,256 L 32,256 c-17.6,0-32-14.4-32-32l0-160 c0-17.6, 14.4-32, 32-32l 320,0 c 17.6,0, 32,14.4, 32,32
		l0,48 l 128-80L 512,256 L 384,176z M 320,96L 64,96 l0,96 l 256,0 L 320,96 z"  />
<glyph unicode="&#xe024;" d="M 432,384L 176,384 c-44,0-80-36-80-80l0-256 c0-44, 36-80, 80-80l 256,0 c 44,0, 80,36, 80,80L 512,304 C 512,348, 476,384, 432,384z M 208,32
	c-26.51,0-48,21.49-48,48s 21.49,48, 48,48s 48-21.49, 48-48S 234.51,32, 208,32z M 208,224c-26.51,0-48,21.49-48,48s 21.49,48, 48,48
	s 48-21.49, 48-48S 234.51,224, 208,224z M 304,128c-26.51,0-48,21.49-48,48s 21.49,48, 48,48s 48-21.49, 48-48S 330.51,128, 304,128z M 400,32
	c-26.51,0-48,21.49-48,48s 21.49,48, 48,48s 48-21.49, 48-48S 426.51,32, 400,32z M 400,224c-26.51,0-48,21.49-48,48s 21.49,48, 48,48
	s 48-21.49, 48-48S 426.51,224, 400,224z M 414.38,416C 406.915,452.402, 374.525,480, 336,480L 80,480 C 36,480,0,444,0,400l0-256 
	c0-38.523, 27.598-70.915, 64-78.38L 64,384 c0,17.6, 14.4,32, 32,32L 414.38,416 z"  />
<glyph unicode="&#xe025;" d="M 482.365,390.598C 435.414,445.323, 365.76,480, 288,480C 146.615,480, 32,365.385, 32,224s 114.615-256, 256-256
	c 77.76,0, 147.414,34.678, 194.364,89.402L 320,224L 482.365,390.598z M 352,419.699c 19.716,0, 35.699-15.982, 35.699-35.699
	c0-19.716-15.983-35.699-35.699-35.699S 316.301,364.284, 316.301,384C 316.301,403.716, 332.284,419.699, 352,419.699z"  />
<glyph unicode="&#xe026;" d="M 408.785,305.925C 312.002,377.854, 278.652,435.434, 256.002,479.999l0,0C 256,479.999, 256,480, 256,480l0-0.001 
	c-22.648-44.565-56-102.146-152.783-174.074c-165.018-122.643-9.688-293.834, 126.879-199.612
	c-8.898-58.465-39.265-101.086-70.104-119.441L 159.992-32 l 96.008,0 l 96.008,0 l0,18.87 c-30.841,18.354-61.205,60.977-70.106,119.442
	C 418.47,12.089, 573.802,183.282, 408.785,305.925z"  />
<glyph unicode="&#xe027;" d="M 393.416,283.614c-29.516,0-56.043-12.298-74.926-32.347c-7.998-8.492-21.881-18.556-36.9-27.405
	c 7.055,26.934, 29.338,60.85, 44.814,75.728c 19.82,19.085, 31.992,45.915, 31.992,75.75C 358.399,432.787, 312.658,479.388, 256.002,480
	c-56.66-0.611-102.398-47.213-102.398-104.659c0-29.836, 12.172-56.665, 31.993-75.75c 15.477-14.878, 37.76-48.794, 44.814-75.728
	c-15.021,8.85-28.903,18.913-36.9,27.405c-18.884,20.049-45.41,32.347-74.925,32.347c-57.193,0-103.54-46.832-103.54-104.664
	c0-57.819, 46.346-104.669, 103.54-104.669c 29.521,0, 56.041,12.678, 74.925,32.726c 8.402,8.936, 23.222,20.069, 39.146,29.316
	c-1.501-73.846-36.766-128.084-72.659-149.453L 159.998-32 l 96.005,0 l 96.002,0 l0,18.87 c-35.896,21.368-71.16,75.608-72.66,149.453
	c 15.926-9.247, 30.744-20.384, 39.146-29.316c 18.883-20.047, 45.404-32.726, 74.926-32.726c 57.193,0, 103.539,46.85, 103.539,104.669
	C 496.955,236.782, 450.61,283.614, 393.416,283.614z"  />
<glyph unicode="&#xe028;" d="M 256,480L 96,224L 256-32L 416,224 z"  />
<glyph unicode="&#xe029;" d="M 368.010,162.020C 378.193,180.385, 384,201.513, 384,224c0,51.657-30.604,96.162-74.667,116.386
	C 325.695,355.035, 336,376.311, 336,400c0,44.183-35.817,80-80,80c-44.183,0-80-35.817-80-80c0-23.69, 10.305-44.965, 26.667-59.614
	C 158.604,320.162, 128,275.657, 128,224c0-22.487, 5.806-43.615, 15.99-61.98C 77.044,123.287, 32,50.906, 32-32l 448,0 
	C 480,50.906, 434.956,123.287, 368.010,162.020z"  />
<glyph unicode="&#xe02a;" d="M 512,265.372c0,100.463-29.396,181.969-65.741,182.613c 0.146,0.003, 0.289,0.015, 0.436,0.015l-41.471,0 
	c0,0-97.4-73.168-237.615-101.877c-4.28-22.646-7.015-49.637-7.015-80.751c0-31.114, 2.733-58.104, 7.015-80.75
	c 140.214-28.709, 237.615-101.878, 237.615-101.878l 41.471,0 c-0.146,0-0.289,0.012-0.436,0.016C 482.607,83.404, 512,164.909, 512,265.372
	z M 432.412,110.374c-4.691,0-9.766,4.871-12.373,7.774c-6.315,7.032-12.396,17.98-17.594,31.664
	c-11.628,30.616-18.033,71.655-18.033,115.562c0,43.905, 6.405,84.945, 18.033,115.561c 5.197,13.684, 11.281,24.633, 17.594,31.664
	c 2.607,2.906, 7.682,7.776, 12.373,7.776c 4.69,0, 9.768-4.872, 12.372-7.776c 6.317-7.032, 12.398-17.979, 17.594-31.664
	c 11.629-30.615, 18.034-71.656, 18.034-115.561c0-43.902-6.405-84.944-18.034-115.562c-5.195-13.684-11.281-24.632-17.594-31.664
	C 442.18,115.245, 437.104,110.374, 432.412,110.374z M 125.906,265.372c0,25.975, 1.905,51.215, 5.526,74.547
	c-23.686-3.277-44.471-5.162-70.17-5.162c-33.529,0-33.529,0-33.529,0L0,287.414l0-44.085 l 27.73-47.343c0,0,0,0, 33.53,0
	c 25.699,0, 46.484-1.887, 70.17-5.162C 127.812,214.156, 125.906,239.397, 125.906,265.372z M 184.075,158.914l-63.999,12.255
	l 40.921-160.772c 2.118-8.317, 10.372-12.519, 18.343-9.327l 59.278,23.726c 7.972,3.188, 11.164,11.982, 7.098,19.542L 184.075,158.914zM 432.412,205.635c-1.809,0-3.764,1.877-4.769,2.996c-2.435,2.71-4.778,6.93-6.781,12.204
	c-4.481,11.8-6.95,27.617-6.95,44.539c0,16.922, 2.469,32.739, 6.95,44.539c 2.003,5.274, 4.348,9.494, 6.781,12.204
	c 1.005,1.12, 2.96,2.997, 4.769,2.997c 1.808,0, 3.765-1.878, 4.769-2.997c 2.435-2.71, 4.778-6.929, 6.78-12.204
	c 4.482-11.799, 6.951-27.617, 6.951-44.539c0-16.921-2.469-32.739-6.951-44.539c-2.002-5.274-4.348-9.494-6.78-12.204
	C 436.177,207.512, 434.221,205.635, 432.412,205.635z"  />
<glyph unicode="&#xe02b;" d="M 320,192 C 372.935,192 420.935,170.467 455.701,135.701 L 410.467,90.467 C 387.29,113.645 355.289,128 320,128 C 284.711,128 252.711,113.645 229.533,90.467 L 184.299,135.701 C 219.065,170.467 267.065,192 320,192 ZM 93.726,226.274 C 154.166,286.714 234.525,320 320,320 C 405.475,320 485.834,286.714 546.275,226.274 L 501.020,181.020 L 501.020,181.020 C 452.667,229.372 388.38,256 320,256 C 251.619,256 187.333,229.372 138.981,181.019 L 93.726,226.274 ZM 494.392,412.781 C 547.743,390.215 595.65,357.917 636.783,316.783 L 636.783,316.783 L 591.529,271.529 C 519.001,344.057 422.569,384 320,384 C 217.43,384 121,344.057 48.471,271.529 L 3.216,316.784 C 44.35,357.917 92.257,390.215 145.608,412.781 C 200.86,436.15 259.534,448 320,448 C 380.466,448 439.139,436.15 494.392,412.781 ZM 288,32A32,32 2700 1 1 352,32A32,32 2700 1 1 288,32z" horiz-adv-x="640"  />
<glyph unicode="&#xe02c;" d="M 512,224C 512,365.385, 397.385,480, 256,480S0,365.385,0,224c0-110.027, 69.418-203.832, 166.843-240.034L 160-32l 192,0 l-6.843,15.966
	C 442.582,20.168, 512,113.973, 512,224z M 243.395,162.587C 231.991,167.481, 224,178.805, 224,192c0,17.673, 14.327,32, 32,32
	c 17.673,0, 32-14.327, 32-32c0-13.195-7.989-24.522-19.393-29.417L 256,192L 243.395,162.587z M 269.134,161.354
	C 298.18,167.413, 320,193.155, 320,224c0,35.347-28.653,64-64,64c-35.346,0-64-28.653-64-64c0-30.846, 21.831-56.561, 50.88-62.614
	l-37.312-87.061C 159.953,93.9, 128,139.217, 128,192c0,70.692, 57.308,134, 128,134s 128-63.308, 128-134
	c0-52.783-31.953-98.1-77.568-117.675L 269.134,161.354z M 344.224-13.854l-36.962,86.243C 370.485,93.758, 416,153.562, 416,224
	c0,88.365-71.634,160-160,160c-88.365,0-160-71.635-160-160c0-70.438, 45.515-130.242, 108.738-151.611l-36.962-86.243
	C 87.979,20.39, 32.083,99.663, 32.083,192C 32.083,315.666, 132.334,421.917, 256,421.917c 123.666,0, 223.917-106.251, 223.917-229.917
	C 479.917,99.663, 424.021,20.39, 344.224-13.854z"  />
<glyph unicode="&#xe02d;" d="M 192,224A64,64 2700 1 1 320,224A64,64 2700 1 1 192,224zM 332.174,364.737 C 382.1,337.658 416,284.7808A7B44A68"  />
<glyph unicode="&#xe02e;" d="M 448,416l0-416 L 112,0 c-26.511,0-48,21.49-48,48c0,26.509, 21.489,48, 48,48l 304,0 L 416,480 L 96,480 C 60.801,480, 32,451.2, 32,416l0-384 
		c0-35.2, 28.801-64, 64-64l 384,0 L 480,416 L 448,416 zM 128,64L 416,64L 416,32L 128,32z"  />
<glyph unicode="&#xe02f;" d="M 288.117,335.365L 409.473,376.081L 511.265,72.689L 389.909,31.973zM0,32l 128,0 L 128,384 L0,384 L0,32 z M 32,320l 64,0 l0-32 L 32,288 L 32,320 zM 160,32l 128,0 L 288,384 L 160,384 L 160,32 z M 192,320l 64,0 l0-32 l-64,0 L 192,320 z"  />
<glyph unicode="&#xe030;" d="M 256,480L0,320l 512,0 L 256,480z M 400,288l 16-32l0-192 l 64,0 L 480,256 l 16,32L 400,288 z M 272,288l 16-32l0-192 l 64,0 L 352,256 l 16,32L 272,288 z M 144,288l 16-32l0-192 l 64,0 
	L 224,256 l 16,32L 144,288 z M 16,288l 16-32l0-192 l 64,0 L 96,256 l 16,32L 16,288 z M 16,32L0-32l 512,0 l-16,64L 16,32 z M 288,384c0-17.673-14.327-32-32-32
	c-17.673,0-32,14.327-32,32s 14.327,32, 32,32C 273.673,416, 288,401.673, 288,384z"  />
<glyph unicode="&#xe031;" d="M 432,480L 48,480 C 21.6,480,0,458.4,0,432l0-416 c0-26.4, 21.6-48, 48-48l 384,0 c 26.4,0, 48,21.6, 48,48L 480,432 C 480,458.4, 458.4,480, 432,480z M 416,32L 64,32 
		L 64,416 l 352,0 L 416,32 zM 128,256L 352,256L 352,224L 128,224zM 128,192L 352,192L 352,160L 128,160zM 128,128L 352,128L 352,96L 128,96zM 128,320L 352,320L 352,288L 128,288z"  />
<glyph unicode="&#xe032;" d="M 432,480L 48,480 C 21.6,480,0,458.4,0,432l0-416 c0-26.4, 21.6-48, 48-48l 384,0 c 26.4,0, 48,21.6, 48,48L 480,432 C 480,458.4, 458.4,480, 432,480z M 416,32L 64,32 
		L 64,416 l 352,0 L 416,32 zM 128,192L 352,192L 352,160L 128,160zM 128,128L 352,128L 352,96L 128,96zM 160,336A48,48 4860 1 1 256,336A48,48 4860 1 1 160,336zM 240,288l-64,0 c-26.4,0-48-14.4-48-32l0-32 l 160,0 l0,32 C 288,273.6, 266.4,288, 240,288z"  />
<glyph unicode="&#xe033;" d="M 446.059,385.941l-60.117,60.118C 367.273,464.727, 330.4,480, 304,480L 80,480 C 53.6,480, 32,458.4, 32,432l0-416 c0-26.4, 21.6-48, 48-48l 352,0 
	c 26.4,0, 48,21.6, 48,48L 480,304 C 480,330.4, 464.727,367.273, 446.059,385.941z M 320,412.219c 1.098-0.402, 2.226-0.84, 3.379-1.318
	c 9.030-3.741, 15.299-8.088, 17.308-10.097l 60.118-60.119c 2.009-2.009, 6.356-8.277, 10.097-17.307c 0.478-1.153, 0.916-2.281, 1.318-3.378
	L 320,320 L 320,412.219 z M 416,32L 96,32 L 96,416 l 192,0 l0-128 l 128,0 L 416,32 z"  />
<glyph unicode="&#xe034;" d="M 446.059,385.941l-60.117,60.118C 367.273,464.727, 330.4,480, 304,480L 80,480 C 53.6,480, 32,458.4, 32,432l0-416 c0-26.4, 21.6-48, 48-48l 352,0 
	c 26.4,0, 48,21.6, 48,48L 480,304 C 480,330.4, 464.727,367.273, 446.059,385.941z M 320,412.219c 1.098-0.402, 2.226-0.84, 3.379-1.318
	c 9.030-3.741, 15.299-8.088, 17.308-10.097l 60.118-60.119c 2.009-2.009, 6.356-8.277, 10.097-17.307c 0.478-1.153, 0.916-2.281, 1.318-3.378
	L 320,320 L 320,412.219 z M 416,32L 96,32 L 96,416 l 192,0 l0-128 l 128,0 L 416,32 zM 128,224L 384,224L 384,192L 128,192zM 128,160L 384,160L 384,128L 128,128zM 128,96L 384,96L 384,64L 128,64z"  />
<glyph unicode="&#xe035;" d="M 451.716,380.285l-71.432,71.431C 364.728,467.272, 334,480, 312,480L 72,480 C 50,480, 32,462, 32,440l0-432 c0-22, 18-40, 40-40l 368,0 c 22,0, 40,18, 40,40
	L 480,312 C 480,334, 467.272,364.729, 451.716,380.285z M 429.089,357.657c 1.565-1.565, 3.125-3.487, 4.64-5.657L 352,352 L 352,433.728 
	c 2.17-1.515, 4.092-3.075, 5.657-4.64L 429.089,357.657z M 448,8c0-4.336-3.664-8-8-8L 72,0 c-4.336,0-8,3.664-8,8L 64,440 c0,4.336, 3.664,8, 8,8
	l 240,0 c 2.416,0, 5.127-0.305, 8-0.852L 320,320 l 127.148,0 c 0.547-2.873, 0.852-5.583, 0.852-8L 448,8 z"  />
<glyph unicode="&#xe036;" d="M 416,352l-96,0 L 320,384 L 224,480L0,480 l0-384 l 192,0 l0-128 l 320,0 L 512,256 L 416,352z M 416,306.745L 466.745,256L 416,256 L 416,306.745 z M 224,434.745L 274.745,384L 224,384 
	L 224,434.745 z M 32,448l 160,0 l0-96 l 96,0 l0-224 L 32,128 L 32,448 z M 480,0L 224,0 l0,96 l 96,0 L 320,320 l 64,0 l0-96 l 96,0 L 480,0 z"  />
<glyph unicode="&#xe037;" d="M 432,416l-32,0 l0-32 l 16,0 l0-256 L 288,128 l0-128 L 96,0 L 96,384 l 16,0 L 112,416 L 80,416 c-8.801,0-16-7.2-16-16l0-416 c0-8.8, 7.199-16, 16-16l 252,0 l 116,116L 448,400 
	C 448,408.8, 440.8,416, 432,416z M 320,0l0,96 l 96,0 L 320,0zM 384,416l-64,0 L 320,448 c0,17.6-14.4,32-32,32l-64,0 c-17.602,0-32-14.4-32-32l0-32 l-64,0 l0-64 l 256,0 L 384,416 z M 288,416l-64,0 L 224,447.943 
	c 0.017,0.019, 0.036,0.039, 0.057,0.057l 63.884,0 c 0.021-0.018, 0.041-0.038, 0.059-0.057L 288,416 z"  />
<glyph unicode="&#xe038;" d="M 320,352L 320,480 L 96,480 L0,384l0-288 l 192,0 l0-128 l 320,0 L 512,352 L 320,352 z M 96,434.745L 96,384 L 45.255,384 L 96,434.745z M 32,128L 32,352 l 96,0 L 128,448 l 160,0 l0-96 l-96-96l0-128 L 32,128 z
	 M 288,306.745L 288,256 l-50.745,0 L 288,306.745z M 480,0L 224,0 L 224,224 l 96,0 l0,96 l 160,0 L 480,0 z"  />
<glyph unicode="&#xe039;" d="M 352,416l-64,0 L 288,448 c0,17.6-14.4,32-32,32l-64,0 c-17.602,0-32-14.4-32-32l0-32 L 96,416 l0-64 l 256,0 L 352,416 z M 256,416l-64,0 L 192,447.943 
		c 0.017,0.019, 0.036,0.039, 0.057,0.057l 63.884,0 c 0.021-0.018, 0.041-0.038, 0.059-0.057L 256,416 zM 416,320L 416,400 c0,8.8-7.2,16-16,16l-32,0 l0-32 l 16,0 l0-64 L 192,320 l0-224 L 64,96 L 64,384 l 16,0 L 80,416 L 48,416 c-8.801,0-16-7.2-16-16l0-320 c0-8.8, 7.199-16, 16-16l 144,0 
		l0-96 l 224,0 l 96,96L 512,320 L 416,320 z M 416,13.255L 416,64 l 50.745,0 L 416,13.255z M 480,96l-96,0 l0-96 L 224,0 L 224,288 l 256,0 L 480,96 z"  />
<glyph unicode="&#xe03a;" d="M 416,320L 416,400 c0,8.8-7.2,16-16,16L 288,416 L 288,448 c0,17.6-14.4,32-32,32l-64,0 c-17.602,0-32-14.4-32-32l0-32 L 48,416 c-8.801,0-16-7.2-16-16l0-320 
	c0-8.8, 7.199-16, 16-16l 144,0 l0-96 l 224,0 l 96,96L 512,320 L 416,320 z M 192,447.943c 0.017,0.019, 0.036,0.039, 0.057,0.057l 63.884,0 
	c 0.021-0.018, 0.041-0.038, 0.059-0.057L 256,416 l-64,0 L 192,447.943 z M 96,352L 96,384 l 256,0 l0-32 L 96,352 z M 416,13.255L 416,64 l 50.745,0 L 416,13.255z M 480,96l-96,0 l0-96 
	L 224,0 L 224,288 l 256,0 L 480,96 z"  />
<glyph unicode="&#xe03b;" d="M 352,416l-64,0 L 288,448 c0,17.6-14.4,32-32,32l-64,0 c-17.602,0-32-14.4-32-32l0-32 L 96,416 l0-64 l 256,0 L 352,416 z M 256,416l-64,0 L 192,447.943 
		c 0.017,0.019, 0.036,0.039, 0.057,0.057l 63.884,0 c 0.021-0.018, 0.041-0.038, 0.059-0.057L 256,416 zM 416,320L 416,400 c0,8.8-7.2,16-16,16l-32,0 l0-32 l 16,0 l0-64 l-96,0 l-96-96l0-128 L 64,96 L 64,384 l 16,0 L 80,416 L 48,416 c-8.801,0-16-7.2-16-16l0-320 
		c0-8.8, 7.199-16, 16-16l 144,0 l0-96 l 320,0 L 512,320 L 416,320 z M 288,274.745L 288,224 l-50.745,0 L 288,274.745z M 480,0L 224,0 L 224,192 l 96,0 l0,96 l 160,0 L 480,0 z"  />
<glyph unicode="&#xe03c;" d="M 512,320L 256,448L0,320l 256-128L 512,320z M 256,405.515L 427.029,320L 256,234.485L 84.971,320L 2560A731FCAA7"  />
<glyph unicode="&#xe03d;" d="M 0,320 L 512,320 L 480,0 L 32,0 L 0,320 Z M 464,384 L 480,352 L 32,352 L 64,416 L 240,416 L 256,384 L 464,384 Z"  />
<glyph unicode="&#xe03e;" d="M 416,0L 512,256L 96,256L0,0 zM 64,288 L 0,0 L 0,416 L 144,416 L 208,352 L 416,352 L 416,288 Z"  />
<glyph unicode="&#xe03f;" d="M 463.906,480L 319.625,480 c-26.453,0-63.398-15.303-82.102-34.007L 14.028,222.498c-18.704-18.704-18.704-49.312,0-68.016
	l 172.455-172.453c 18.704-18.705, 49.311-18.705, 68.015,0l 223.495,223.494C 496.697,224.228, 512,261.174, 512,287.625L 512,431.906 
	C 512,458.358, 490.357,480, 463.906,480z M 400,320c-26.51,0-48,21.49-48,48s 21.49,48, 48,48s 48-21.49, 48-48S 426.51,320, 400,320z"  />
<glyph unicode="&#xe040;" d="M 496,448L 384,448 c-26.4,0-63.273-15.273-81.941-33.941L 113.941,225.941c-18.667-18.667-18.667-49.214,0-67.882l 140.118-140.117
	c 18.667-18.668, 49.214-18.668, 67.882,0l 188.117,188.117C 528.727,224.727, 544,261.6, 544,288L 544,400 C 544,426.4, 522.4,448, 496,448z M 432,288
	c-26.51,0-48,21.49-48,48s 21.49,48, 48,48s 48-21.49, 48-48S 458.51,288, 432,288zM 43.313,180.687 L 214.502,9.498 C 196.37-0.082 173.271,2.729 158.059,17.942 L 17.941,158.059 C -0.726,176.727 -0.726,207.274 17.941,225.941 L 206.059,414.059 C 224.727,432.727 261.6,448 288,448 L 43.313,203.314 C 37.091,197.091 37.091,186.91 43.313,180.687 Z" horiz-adv-x="544"  />
<glyph unicode="&#xe041;" d="M0,416L 64,416L 64,96L0,96zM 96,416L 128,416L 128,96L 96,96zM 160,416L 192,416L 192,96L 160,96zM 256,416L 288,416L 288,96L 256,96zM 384,416L 416,416L 416,96L 384,96zM 480,416L 512,416L 512,96L 480,96zM 320,416L 336,416L 336,96L 320,96zM 224,416L 240,416L 240,96L 224,96zM 432,416L 448,416L 448,96L 432,96zM0,64L 32,64L 32,32L0,32zM 96,64L 128,64L 128,32L 96,32zM 160,64L 192,64L 192,32L 160,32zM 320,64L 352,64L 352,32L 320,32zM 480,64L 512,64L 512,32L 480,32zM 384,64L 448,64L 448,32L 384,32zM 224,64L 288,64L 288,32L 224,32z"  />
<glyph unicode="&#xe042;" d="M 160,448 L 32,448 L 32,320 L 160,320 L 160,448 Z M 192,480 L 192,480 L 192,288 L 0,288 L 0,480 L 192,480 ZM 64,416L 128,416L 128,352L 64,352zM 480,448 L 352,448 L 352,320 L 480,320 L 480,448 Z M 512,480 L 512,480 L 512,288 L 320,288 L 320,480 L 512,480 ZM 384,416L 448,416L 448,352L 384,352zM 160,128 L 32,128 L 32,0 L 160,0 L 160,128 Z M 192,160 L 192,160 L 192-32 L 0-32 L 0,160 L 192,160 ZM 64,96L 128,96L 128,32L 64,32zM 224,480L 256,480L 256,448L 224,448zM 256,448L 288,448L 288,416L 256,416zM 224,416L 256,416L 256,384L 224,384zM 256,384L 288,384L 288,352L 256,352zM 224,352L 256,352L 256,320L 224,320zM 256,320L 288,320L 288,288L 256,288zM 224,288L 256,288L 256,256L 224,256zM 224,224L 256,224L 256,192L 224,192zM 256,192L 288,192L 288,160L 256,160zM 224,160L 256,160L 256,128L 224,128zM 256,128L 288,128L 288,96L 256,96zM 224,96L 256,96L 256,64L 224,64zM 256,64L 288,64L 288,32L 256,32zM 224,32L 256,32L 256,0L 224,0zM 256,0L 288,0L 288-32L 256-32zM 480,224L 512,224L 512,192L 480,192zM 32,224L 64,224L 64,192L 32,192zM 64,256L 96,256L 96,224L 64,224zM0,256L 32,256L 32,224L0,224zM 128,256L 160,256L 160,224L 128,224zM 160,224L 192,224L 192,192L 160,192zM 192,256L 224,256L 224,224L 192,224zM 288,224L 320,224L 320,192L 288,192zM 320,256L 352,256L 352,224L 320,224zM 352,224L 384,224L 384,192L 352,192zM 384,256L 416,256L 416,224L 384,224zM 416,224L 448,224L 448,192L 416,192zM 448,256L 480,256L 480,224L 448,224zM 480,160L 512,160L 512,128L 480,128zM 288,160L 320,160L 320,128L 288,128zM 320,192L 352,192L 352,160L 320,160zM 352,160L 384,160L 384,128L 352,128zM 416,160L 448,160L 448,128L 416,128zM 448,192L 480,192L 480,160L 448,160zM 480,96L 512,96L 512,64L 480,64zM 288,96L 320,96L 320,64L 288,64zM 320,128L 352,128L 352,96L 320,96zM 384,128L 416,128L 416,96L 384,96zM 416,96L 448,96L 448,64L 416,64zM 448,128L 480,128L 480,96L 448,96zM 480,32L 512,32L 512,0L 480,0zM 320,64L 352,64L 352,32L 320,32zM 352,32L 384,32L 384,0L 352,0zM 384,64L 416,64L 416,32L 384,32zM 416,32L 448,32L 448,0L 416,0zM 320,0L 352,0L 352-32L 320-32zM 384,0L 416,0L 416-32L 384-32zM 448,0L 480,0L 480-32L 448-32z"  />
<glyph unicode="&#xe043;" d="M 287.998,320L 351.997,256.001L 224,128.004L 160.001,192.003zM 500.763,331.248l-36.758,36.758l-16.004-16.004c-8.189-8.19-19.505-13.255-32-13.255
		c-24.994,0-45.257,20.261-45.257,45.255c0,12.501, 5.070,23.819, 13.267,32.009l 15.994,15.993l-36.759,36.758
		c-14.984,14.984-39.504,14.984-54.488,0L 11.238,171.243c-14.983-14.984-14.983-39.505,0-54.488l 36.76-36.759l 15.981,15.982
		c 8.191,8.203, 19.515,13.276, 32.022,13.276c 24.994,0, 45.255-20.262, 45.255-45.255c0-12.503-5.070-23.82-13.267-32.011l-15.992-15.993
		l 36.758-36.759c 14.983-14.983, 39.504-14.983, 54.488,0l 297.52,297.52C 515.745,291.744, 515.745,316.264, 500.763,331.248z
		 M 224.001,64.002l-128,128l 192,192l 128-128L 224.001,64.002z"  />
<glyph unicode="&#xe044;" d="M 64,16A48,48 10980 1 1 160,16A48,48 10980 1 1 64,16zM 384,16A48,48 10980 1 1 480,16A48,48 10980 1 1 384,16zM 480,224L 480,416 L 64,416 C 64,451.346, 35.347,480,0,480l0-32 c 17.645,0, 32-14.355, 32-32l 24.037-206.027C 41.39,198.244, 32,180.223, 32,160
		c0-35.347, 28.654-64, 64-64l 384,0 l0,32 L 96,128 c-17.673,0-32,14.327-32,32c0,0.11, 0.007,0.218, 0.008,0.328L 480,224z"  />
<glyph unicode="&#xe045;" d="M 423.609,192c 17.6,0, 35.956,13.846, 40.791,30.769l 46.418,162.463C 515.653,402.154, 505.209,416, 487.609,416L 160,416 
	c0,35.346-28.654,64-64,64L0,480 l0-64 l 96,0 l0-272 c0-26.51, 21.49-48, 48-48l 304,0 c 17.673,0, 32,14.327, 32,32s-14.327,32-32,32L 160,160 l0,32 L 423.609,192 z
	 M 160,352l 289.403,0 l-27.429-96L 160,256 L 160,352 zM 192,8c0-22-18-40-40-40l-16,0 c-22,0-40,18-40,40l0,16 c0,22, 18,40, 40,40l 16,0 c 22,0, 40-18, 40-40L 192,8 zM 480,8c0-22-18-40-40-40l-16,0 c-22,0-40,18-40,40l0,16 c0,22, 18,40, 40,40l 16,0 c 22,0, 40-18, 40-40L 480,8 z"  />
<glyph unicode="&#xe046;" d="M 488.791,382.769c-16.992,4.854-34.705-4.985-39.56-21.978L 446.72,352L 148.249,352 l-4.496,35.969
		C 141.751,403.983, 128.138,416, 112,416L 32,416 C 14.327,416,0,401.673,0,384s 14.327-32, 32-32l 51.751,0 l 28.496-227.969
		C 114.249,108.018, 127.862,96, 144,96l 272,0 c 14.287,0, 26.844,9.472, 30.769,23.209l 64,224
		C 515.624,360.202, 505.784,377.914, 488.791,382.769z M 256,224l0,32 l 63.998,0 l0-32 L 256,224 z M 319.998,192l0-32 L 256,160 l0,32 L 319.998,192 z M 256,288l0,32 
		l 63.998,0 l0-32 L 256,288 z M 152.249,320L 224,320 l0-32 l-67.751,0 L 152.249,320z M 160.249,256L 224,256 l0-32 l-59.751,0 L 160.249,256z M 168.249,192L 224,192 l0-32 l-51.751,0 
		L 168.249,192z M 391.862,160l-39.864,0 l0,32 l 49.007,0 L 391.862,160z M 410.148,224l-58.15,0 l0,32 l 67.293,0 L 410.148,224z M 428.434,288l-76.436,0 
		l0,32 l 85.579,0 L 428.434,288zM 128,16A48,48 2700 1 1 224,16A48,48 2700 1 1 128,16zM 320,16A48,48 2700 1 1 416,16A48,48 2700 1 1 320,16z"  />
<glyph unicode="&#xe047;" d="M 240,448C 107.452,448,0,340.548,0,208c0-132.549, 107.452-240, 240-240c 132.549,0, 240,107.451, 240,240
		C 480,340.548, 372.549,448, 240,448z M 240,16c-106.039,0-192,85.961-192,192c0,106.039, 85.961,192, 192,192
		c 106.039,0, 192-85.961, 192-192C 432,101.961, 346.039,16, 240,16zM 256,224l0,64 l 64,0 l0,32 l-64,0 l0,32 l-32,0 l0-32 l-64,0 l0-128 l 64,0 l0-64 l-64,0 l0-32 l 64,0 l0-32 l 32,0 l0,32 l 64,0 l 0.001,0 L 320,224L 256,224 z M 224,224l-32,0 l0,64 l 32,0 L 224,224 z
	 M 288.001,128L 256,128 l0,64 l 32.001,0 L 288.001,128 z"  />
<glyph unicode="&#xe048;" d="M 464,416L 48,416 C 21.6,416,0,394.4,0,368l0-288 c0-26.4, 21.6-48, 48-48l 416,0 c 26.4,0, 48,21.6, 48,48L 512,368 C 512,394.4, 490.4,416, 464,416z M 48,384
		l 416,0 c 8.673,0, 16-7.327, 16-16l0-48 L 32,320 l0,48 C 32,376.673, 39.327,384, 48,384z M 464,64L 48,64 c-8.673,0-16,7.327-16,16L 32,224 l 448,0 l0-144 
		C 480,71.327, 472.673,64, 464,64zM 64,160L 96,160L 96,96L 64,96zM 128,160L 160,160L 160,96L 128,96zM 192,160L 224,160L 224,96L 192,96z"  />
<glyph unicode="&#xe049;" d="M 192,448L 32,448 C 14.4,448,0,433.6,0,416l0-160 c0-17.6, 14.398-32, 32-32l 160,0 c 17.6,0, 32,14.4, 32,32L 224,416 C 224,433.6, 209.6,448, 192,448z
	 M 192,320L 32,320 l0,32 l 160,0 L 192,320 z M 448,448L 288,448 c-17.602,0-32-14.4-32-32l0-416 c0-17.6, 14.398-32, 32-32l 160,0 c 17.6,0, 32,14.4, 32,32L 480,416 
	C 480,433.6, 465.6,448, 448,448z M 448,160L 288,160 l0,32 l 160,0 L 448,160 z M 448,256L 288,256 l0,32 l 160,0 L 448,256 z M 192,192L 32,192 c-17.6,0-32-14.4-32-32l0-160 
	c0-17.6, 14.398-32, 32-32l 160,0 c 17.6,0, 32,14.4, 32,32L 224,160 C 224,177.6, 209.6,192, 192,192z M 192,64l-64,0 l0-64 L 96,0 l0,64 L 32,64 l0,32 l 64,0 l0,64 l 32,0 l0-64 l 64,0 
	L 192,64 z"  />
<glyph unicode="&#xe04a;" d="M 256,480C 114.615,480,0,365.385,0,224s 114.615-256, 256-256s 256,114.615, 256,256S 397.385,480, 256,480z M 160,224
	c0,53.020, 42.98,96, 96,96s 96-42.98, 96-96s-42.98-96-96-96S 160,170.98, 160,224z M 462.99,138.262L 462.99,138.262l-88.71,36.745
	C 380.539,190.099, 384,206.645, 384,224s-3.461,33.901-9.72,48.993l 61.063,25.293l 27.647,11.452C 473.944,283.327, 480,254.373, 480,224
	C 480,193.627, 473.943,164.673, 462.99,138.262L 462.99,138.262z M 341.739,430.99L 341.739,430.99L 341.739,430.99l-36.745-88.71
	C 289.902,348.539, 273.356,352, 256,352s-33.901-3.461-48.993-9.72l-17.23,41.599l-19.515,47.112C 196.673,441.943, 225.628,448, 256,448
	C 286.373,448, 315.327,441.943, 341.739,430.99z M 49.010,309.738l 47.112-19.515l 41.599-17.23C 131.462,257.901, 128,241.355, 128,224
	s 3.461-33.901, 9.72-48.993l-88.71-36.745C 38.057,164.673, 32,193.627, 32,224C 32,254.373, 38.057,283.327, 49.010,309.738z
	 M 170.262,17.010l 11.452,27.647l 25.293,61.063C 222.099,99.461, 238.645,96, 256,96s 33.901,3.461, 48.993,9.72l 36.745-88.71l0,0l0,0
	C 315.327,6.058, 286.373,0, 256,0C 225.628,0, 196.673,6.057, 170.262,17.010z"  />
<glyph unicode="&#xe000;" d="M 352,160c-32-32-32-64-64-64s-64,32-96,64s-64,64-64,96s 32,32, 64,64S 128,448, 96,448S0,352,0,352c0-64, 65.75-193.75, 128-256
	s 192-128, 256-128c0,0, 96,64, 96,96S 384,192, 352,160z"  />
<glyph unicode="&#xe001;" d="M 508.689,192.003 C 512.691,164.262 515.297,126.307 502.857,111.78 C 482.286,87.758 352.001,87.758 3042DE76A4A"  />
<glyph unicode="&#xe002;" d="M 480,352c 17.673,0, 32,14.327, 32,32L 512,448 l-64,0 L 448,480 L 32,480 C 14.4,480,0,465.601,0,448l0-448 c0-17.6, 14.398-32, 32-32l 416,0 L 448,96 l 32,0 
	c 17.673,0, 32,14.327, 32,32l0,64 l-64,0 l0,32 l 32,0 c 17.673,0, 32,14.327, 32,32l0,64 l-64,0 l0,32 L 480,352 z M 288,351.835
	c 35.255,0, 63.835-28.58, 63.835-63.835s-28.58-63.835-63.835-63.835c-35.255,0-63.835,28.58-63.835,63.835
	S 252.745,351.835, 288,351.835z M 128,0L 96,0 L 96,448 l 32,0 L 128,0 z M 384,96L 192,96 l0,32 c0,35.347, 28.654,64, 64,64l0,0 l 64,0 c 35.348,0, 64-28.653, 64-64
	L 384,96 z"  />
<glyph unicode="&#xe003;" d="M 449.18,448L 64,448 l0-64 L 17.18,384 C 8.38,384,0,377.736,0,368.936l0-32 C0,328.136, 8.38,320, 17.18,320L 64,320 l0-32 L 17.18,288 
	C 8.38,288,0,281.736,0,272.936l0-32 C0,232.136, 8.38,224, 17.18,224L 64,224 l0-32 L 17.18,192 C 8.38,192,0,185.736,0,176.936l0-32 
	C0,136.137, 8.38,128, 17.18,128L 64,128 l0-32 L 17.18,96 C 8.38,96,0,89.736,0,80.936l0-32 C0,40.136, 8.38,32, 17.18,32L 64,32 l0-64 l 385.18,0 
	c 17.674,0, 30.82,15.263, 30.82,32.936l0,416 C 480,434.609, 466.854,448, 449.18,448z M 160,0L 96,0 l0,32 l 17.18,0 c 8.8,0, 14.82,8.136, 14.82,16.936
	l0,32 c0,8.801-6.021,15.064-14.82,15.064L 96,96 l0,32 l 17.18,0 c 8.8,0, 14.82,8.136, 14.82,16.936l0,32 c0,8.801-6.021,15.064-14.82,15.064L 96,192 l0,32 
	l 17.18,0 c 8.8,0, 14.82,8.136, 14.82,16.936l0,32 c0,8.801-6.021,15.064-14.82,15.064L 96,288 l0,32 l 17.18,0 c 8.8,0, 14.82,8.136, 14.82,16.936l0,32 
	C 128,377.737, 121.98,384, 113.18,384L 96,384 L 96,416 l 64,0 L 160,0 z"  />
<glyph unicode="&#xe004;" d="M 464,416L 48,416 C 21.6,416,0,394.4,0,368l0-320 c0-26.4, 21.6-48, 48-48l 416,0 c 26.4,0, 48,21.6, 48,48L 512,368 C 512,394.4, 490.4,416, 464,416z
	 M 199.37,204.814L 64,99.368L 64,350.189 L 199.37,204.814z M 88.19,352L 423.81,352 L 256,226L 88.19,352z M 204.644,199.151L 256,144l 51.355,55.151
	L 412.632,64L 99.368,64 L 204.644,199.151z M 312.63,204.814L 448,350.189l0-250.821 L 312.63,204.814z"  />
<glyph unicode="&#xe005;" d="M 272,480l-48-48l 48-48L 160,256L 48,256 l 88-88L0-12.308L0-32 l 19.692,0 L 200,104l 88-88L 288,128 l 128,112l 48-48l 48,48L 272,480z M 224,208l-32,32
	l 112,112l 32-32L 224,208z"  />
<glyph unicode="&#xe006;" d="M 256,480C 167.634,480, 96,408.366, 96,320c0-160, 160-352, 160-352s 160,192, 160,352C 416,408.366, 344.365,480, 256,480z M 256,224
	c-53.020,0-96,42.98-96,96s 42.98,96, 96,96s 96-42.98, 96-96S 309.020,224, 256,224z"  />
<glyph unicode="&#xe007;" d="M 256,480C 167.634,480, 96,408.366, 96,320c0-160, 160-352, 160-352s 160,192, 160,352C 416,408.366, 344.365,480, 256,480z M 256,222
	c-54.124,0-98,43.876-98,98s 43.876,98, 98,98s 98-43.876, 98-98S 310.124,222, 256,222zM 194,320A62,62 1260 1 1 318,320A62,62 1260 1 1 194,320z"  />
<glyph unicode="&#xe008;" d="M 256,480C 114.615,480,0,365.385,0,224s 114.615-256, 256-256s 256,114.615, 256,256S 397.385,480, 256,480z M 256,16
	c-114.875,0-208,93.125-208,208S 141.125,432, 256,432s 208-93.125, 208-208S 370.875,16, 256,16zM 304,272l-144,80l-32,0 l0-32 l 80-144l 144-80l 32,0 l0,32 L 304,272z M 256,192c-17.673,0-32,14.327-32,32c0,17.673, 14.327,32, 32,32
	c 17.673,0, 32-14.327, 32-32C 288,206.327, 273.673,192, 256,192z"  />
<glyph unicode="&#xe009;" d="M0,384L 160,448L 160,64L0,0 zM 352,384 L 352,0 L 192,53.333 L 192,437.333 ZM 512,448 L 512,64 L 384,12.8 L 384,396.8 Z"  />
<glyph unicode="&#xe00a;" d="M 336,384L 176,448L0,384l0-384 l 176,64l 160-64l 176,64L 512,448 L 336,384z M 192,407.135l 128-51.2l0-315.069 l-128,51.199L 192,407.135 z M 32,361.586
	l 128,46.545l0-315.9 L 32,45.687L 32,361.586 z M 480,86.414l-128-46.546l0,315.9 l 128,46.545L 480,86.414 z"  />
<glyph unicode="&#xe00b;" d="M 288,448 C 411.712,448 512,347.712 512,224 C 512,100.288 411.712,0 288,0 L 288,48 C 335.012,48 379.209,66.307 412.451,99.549 C 445.693,132.791 464,176.988 464,224 C 464,271.011 445.693,315.209 412.451,348.451 C 379.209,381.693 335.012,400 288,400 C 240.989,400 196.791,381.693 163.549,348.451 C 137.979,322.882 121.258,290.828 114.896,256 L 208,256 L 96,128 L -16,256 L 66.285,256 C 81.815,364.551 175.154,448 288,448 ZM 384,256 L 384,192 L 256,192 L 256,352 L 320,352 L 320,256 Z"  />
<glyph unicode="&#xe00c;" d="M 329.372,105.372L 224,210.745L 224,352L 288,352L 288,237.255L 374.628,150.628 	zM 256,480C 114.615,480,0,365.385,0,224s 114.615-256, 256-256s 256,114.615, 256,256S 397.385,480, 256,480z M 256,32
		c-106.039,0-192,85.961-192,192c0,106.039, 85.961,192, 192,192c 106.039,0, 192-85.961, 192-192C 448,117.961, 362.039,32, 256,32z"  />
<glyph unicode="&#xe00d;" d="M 256,480C 114.615,480,0,365.385,0,224s 114.615-256, 256-256s 256,114.615, 256,256S 397.385,480, 256,480z M 329.372,105.372L 224,210.745
		L 224,352 l 64,0 l0-114.745 l 86.628-86.627L 329.372,105.372z"  />
<glyph unicode="&#xe00e;" d="M 288,205.255 L 342.627,150.627 L 297.373,105.373 L 224,178.745 L 224,288 L 288,288 ZM 416,448 C 469.020,448 512,405.020 512,352 C 512,319.508 495.855,290.791 471.154,273.421 C 447.859,334.943 398.943,383.859 337.421,407.154 C 354.791,431.855 383.509,448 416,448 ZM 174.579,407.154 C 113.057,383.859 64.141,334.943 40.846,273.421 C 16.145,290.791 0,319.508 0,352 C 0,405.020 42.98,448 96,448 C 128.492,448 157.209,431.855 174.579,407.154 ZM 256,384C 149.961,384, 64,298.039, 64,192c0-46.337, 16.416-88.839, 43.747-122.010L 96-32l 32,0 l 32,57.69l-0.004,0.004
		C 188.238,9.355, 221.025,0, 256,0c 34.974,0, 67.76,9.355, 96.002,25.693L 352,25.691L 384-32l 32,0 l-11.751,101.984
		C 431.583,103.157, 448,145.66, 448,192C 448,298.039, 362.039,384, 256,384z M 256,64c-70.692,0-128,57.308-128,128s 57.308,128, 128,128
		s 128-57.308, 128-128S 326.692,64, 256,64z"  />
<glyph unicode="&#xe00f;" d="M 256,416C 132.288,416, 32,315.712, 32,192s 100.288-224, 224-224s 224,100.288, 224,224S 379.712,416, 256,416z M 256,12
	c-99.412,0-180,80.589-180,180c0,99.412, 80.588,180, 180,180c 99.411,0, 180-80.588, 180-180C 436,92.589, 355.411,12, 256,12z
	 M 467.392,336.413C 475.413,350.439, 480,366.684, 480,384c0,53.020-42.98,96-96,96c-30.909,0-58.401-14.611-75.96-37.298
	C 373.982,429.084, 430.643,390.103, 467.392,336.413z M 203.96,442.702C 186.402,465.389, 158.909,480, 128,480C 74.98,480, 32,437.020, 32,384
	c0-17.316, 4.587-33.561, 12.608-47.587C 81.358,390.103, 138.019,429.084, 203.96,442.702z M 224,320l 32,0 l0-160 l-32,0 L 224,320 z M 256,192l 96,0 l0-32 l-96,0 
	L 256,192 z"  />
<glyph unicode="&#xe04b;" d="M 512.75,80c0,144-128,112-128,224c0,9.28-0.894,17.21-2.524,23.964c-8.415,56.509-46.078,101.86-94.886,115.68
	c 0.433,1.974, 0.66,4.016, 0.66,6.105C 288,466.388, 273.6,480, 256,480c-17.6,0-32-13.612-32-30.25c0-2.090, 0.228-4.132, 0.66-6.105
	c-54.735-15.499-95.457-70.649-96.627-136.721c-0.020-0.96-0.033-1.932-0.033-2.923C 128,192,0,224,0,80
	c0-38.113, 85.295-69.998, 199.485-78.040C 210.247-18.242, 231.513-32, 256-32s 45.754,13.758, 56.515,33.96
	C 426.705,10.002, 512,41.887, 512,80c0,0.114-0.013,0.228-0.014,0.341L 512.75,80z M 413.123,52.952
	c-27.115-7.235-59.079-12.438-93.384-15.324C 316.887,70.337, 289.448,96, 256,96s-60.887-25.663-63.739-58.372
	c-34.304,2.886-66.269,8.089-93.384,15.324C 61.562,62.909, 43.722,74.047, 37.193,80c 6.529,5.953, 24.369,17.091, 61.684,27.048
	C 142.263,118.624, 198.063,125, 256,125s 113.737-6.376, 157.123-17.952c 37.315-9.957, 55.155-21.095, 61.684-27.048
	C 468.278,74.047, 450.438,62.909, 413.123,52.952z"  />
<glyph unicode="&#xe04c;" d="M 256.001,383.394L 256.001,416 l 64,0 L 320.001,448 c0,17.673-14.327,32-32.001,32l-95.999,0 c-17.673,0-32-14.327-32-32l0-32 l 64,0 l0-32.606 
	c-107.399-8.169-192-97.901-192-207.394c0-114.875, 93.125-208, 208-208c 114.875,0, 208,93.125, 208,208
	C 448.001,285.492, 363.4,375.224, 256.001,383.394z M 353.138,62.863C 322.917,32.643, 282.739,16, 240.001,16
	s-82.917,16.643-113.137,46.863C 96.644,93.083, 80.001,133.263, 80.001,176s 16.643,82.917, 46.863,113.137
	c 29.020,29.019, 67.224,45.509, 108.057,46.774l-10.839-157.010C 223.152,165.756, 230.314,160, 240,160
	c 9.686,0, 16.849,5.756, 15.918,18.901L 245.080,335.912c 40.833-1.266, 79.038-17.756, 108.058-46.775
	c 30.22-30.22, 46.863-70.4, 46.863-113.137S 383.358,93.083, 353.138,62.863z"  />
<glyph unicode="&#xe04d;" d="M 160,288L 224,288L 224,224L 160,224zM 256,288L 320,288L 320,224L 256,224zM 352,288L 416,288L 416,224L 352,224zM 64,96L 128,96L 128,32L 64,32zM 160,96L 224,96L 224,32L 160,32zM 256,96L 320,96L 320,32L 256,32zM 160,192L 224,192L 224,128L 160,128zM 256,192L 320,192L 320,128L 256,128zM 352,192L 416,192L 416,128L 352,128zM 64,192L 128,192L 128,128L 64,128zM 416,480l0-32 l-64,0 L 352,480 L 128,480 l0-32 L 64,448 L 64,480 L0,480 l0-512 l 480,0 L 480,480 L 416,480 z M 448,0L 32,0 L 32,352 l 416,0 L 448,0 z"  />
<glyph unicode="&#xe04e;" d="M 448,416l-48,0 l0-16 c0-17.645-14.355-32-32-32s-32,14.355-32,32L 336,416 L 176,416 l0-16 c0-17.645-14.355-32-32-32s-32,14.355-32,32L 112,416 L 64,416 
		c-17.6,0-32-14.4-32-32l0-352 c0-17.6, 14.4-32, 32-32l 384,0 c 17.6,0, 32,14.4, 32,32L 480,384 C 480,401.6, 465.6,416, 448,416z M 448,32.058
		c-0.017-0.020-0.038-0.041-0.058-0.058L 64.057,32 c-0.020,0.017-0.041,0.038-0.057,0.058L 64,320 l 384,0 L 448,32.058 zM 144,384c 8.836,0, 16,7.164, 16,16L 160,464 c0,8.836-7.164,16-16,16s-16-7.164-16-16l0-64 C 128,391.164, 135.164,384, 144,384zM 368,384c 8.836,0, 16,7.164, 16,16L 384,464 c0,8.836-7.164,16-16,16s-16-7.164-16-16l0-64 C 352,391.164, 359.164,384, 368,384zM 288,288L 128,288L 128,256L 256,256L 256,192L 128,192L 128,160L 256,160L 256,96L 128,96L 128,64L 288,64 	zM 352,64L 384,64L 384,288L 320,288L 320,256L 352,256 	zM 436-12L 76-12 c-17.6,0-32,10.4-32,28l0-16 c0-17.6, 14.4-32, 32-32l 360,0 c 17.6,0, 32,14.4, 32,32l0,16 C 468-1.6, 453.6-12, 436-12z"  />
<glyph unicode="&#xe04f;" d="M 128,448L 384,448L 384,384L 128,384zM 480,352L 32,352 C 14.4,352,0,337.6,0,320l0-160 c0-17.6, 14.398-32, 32-32l 96,0 l0-128 l 256,0 L 384,128 l 96,0 c 17.6,0, 32,14.4, 32,32L 512,320 
		C 512,337.6, 497.6,352, 480,352z M 352,32L 160,32 L 160,192 l 192,0 L 352,32 z M 487.2,304c0-12.813-10.387-23.2-23.199-23.2
		c-12.813,0-23.201,10.387-23.201,23.2s 10.388,23.2, 23.201,23.2C 476.814,327.2, 487.2,316.813, 487.2,304z"  />
<glyph unicode="&#xe050;" d="M 544,416L 32,416 C 14.4,416,0,401.6,0,384l0-320 c0-17.6, 14.4-32, 32-32l 512,0 c 17.6,0, 32,14.4, 32,32L 576,384 C 576,401.6, 561.6,416, 544,416z M 320,352
	l 64,0 l0-64 l-64,0 L 320,352 z M 416,256l0-64 l-64,0 l0,64 L 416,256 z M 224,352l 64,0 l0-64 l-64,0 L 224,352 z M 320,256l0-64 l-64,0 l0,64 L 320,256 z M 128,352l 64,0 l0-64 l-64,0 L 128,352 z M 224,256l0-64 
	l-64,0 l0,64 L 224,256 z M 64,352l 32,0 l0-64 L 64,288 L 64,352 z M 64,256l 64,0 l0-64 L 64,192 L 64,256 z M 96,96L 64,96 l0,64 l 32,0 L 96,96 z M 384,96L 128,96 l0,64 l 256,0 L 384,96 z M 512,96l-96,0 l0,64 l 96,0 
	L 512,96 z M 512,192l-64,0 l0,64 l 64,0 L 512,192 z M 512,288l-96,0 l0,64 l 96,0 L 512,288 z" horiz-adv-x="576"  />
<glyph unicode="&#xe051;" d="M 512,64L 512,448 L0,448 l0-384 l 224,0 l0-32 l-96,0 l0-32 l 256,0 l0,32 l-96,0 l0,32 L 512,64 z M 64,384l 384,0 l0-256 L 64,128 L 64,384 z"  />
<glyph unicode="&#xe052;" d="M 448,128L 448,384 c0,17.6-14.4,32-32,32L 96,416 c-17.6,0-32-14.4-32-32l0-256 L0,128 l0-96 l 512,0 l0,96 L 448,128 z M 320,64L 192,64 l0,32 l 128,0 L 320,64 z M 416,128L 96,128 
	L 96,383.943 c 0.017,0.020, 0.038,0.041, 0.057,0.057l 319.885,0 c 0.020-0.017, 0.041-0.038, 0.058-0.058L 416,128 z"  />
<glyph unicode="&#xe053;" d="M 368,480L 144,480 c-26.4,0-48-21.6-48-48l0-416 c0-26.4, 21.6-48, 48-48l 224,0 c 26.4,0, 48,21.6, 48,48L 416,432 C 416,458.4, 394.4,480, 368,480z M 192,456
	l 128,0 l0-16 L 192,440 L 192,456 z M 256,0c-17.673,0-32,14.327-32,32s 14.327,32, 32,32s 32-14.327, 32-32S 273.673,0, 256,0z M 384,96L 128,96 L 128,416 l 256,0 L 384,96 
	z"  />
<glyph unicode="&#xe054;" d="M 384,480L 96,480 C 78.4,480, 64,465.601, 64,448l0-448 c0-17.6, 14.399-32, 32-32l 288,0 c 17.6,0, 32,14.4, 32,32L 416,448 C 416,465.601, 401.6,480, 384,480z
	 M 240-8.891c-13.746,0-24.891,11.145-24.891,24.891s 11.145,24.891, 24.891,24.891s 24.891-11.145, 24.891-24.891
	S 253.746-8.891, 240-8.891z M 384,64L 96,64 L 96,416 l 288,0 L 384,64 z"  />
<glyph unicode="&#xe055;" d="M 400,480L 80,480 C 53.6,480, 32,458.4, 32,432l0-416 c0-26.4, 21.6-48, 48-48l 320,0 c 26.4,0, 48,21.6, 48,48L 448,432 C 448,458.4, 426.4,480, 400,480z M 240-16
	c-8.836,0-16,7.163-16,16s 7.164,16, 16,16s 16-7.163, 16-16S 248.836-16, 240-16z M 384,32L 96,32 L 96,416 l 288,0 L 384,32 z"  />
<glyph unicode="&#xe056;" d="M 490.594,335.946c-44.404,6.384-91.691,11.008-141.038,13.61L 432,432l-32,32L 287.721,351.722
	C 277.218,351.906, 266.643,352, 256,352l0,0L 128,480L 96,448l 97.098-97.098c-60.461-2.121-118.169-7.262-171.693-14.956
	C 7.639,282.083,0,222.57,0,160s 7.639-122.083, 21.402-175.945C 93.223-26.271, 172.572-32, 256-32
	c 83.428,0, 162.775,5.729, 234.594,16.055C 504.361,37.917, 512,97.43, 512,160S 504.361,282.083, 490.594,335.946z M 431.946,42.703
	C 378.081,35.82, 318.571,32, 256,32c-62.571,0-122.083,3.82-175.946,10.703C 69.73,78.611, 64,118.286, 64,160
	c0,41.715, 5.729,81.39, 16.054,117.298C 133.917,284.181, 193.429,288, 256,288c 62.568,0, 122.081-3.819, 175.943-10.702
	C 442.271,241.39, 448,201.715, 448,160C 448,118.286, 442.271,78.611, 431.946,42.703z"  />
<glyph unicode="&#xe057;" d="M 352,480L 160,480 L 64,416l0-128 l 384,0 L 448,416 L 352,480z M 320,320l-32,0 l0,21.333 C 288,347.2, 283.2,352, 277.333,352l-42.666,0 
		c-5.866,0-10.667-4.8-10.667-10.667L 224,320 l-32,0 l0,53.333 C 192,379.2, 196.801,384, 202.667,384l 106.665,0 c 5.867,0, 10.668-4.8, 10.668-10.667
		L 320,320 zM 64,127.999l 384,0 L 448,256 L 64,256 L 64,127.999 z M 192,213.334c0,5.867, 4.801,10.666, 10.667,10.666l 106.665,0 
		c 5.867,0, 10.668-4.799, 10.668-10.666L 320,160 l-32,0 l0,21.334 c0,5.867-4.8,10.666-10.667,10.666l-42.666,0 
		c-5.866,0-10.667-4.799-10.667-10.666L 224,160 l-32,0 L 192,213.334 zM 64-32l 384,0 L 448,95.999 L 64,95.999 L 64-32 z M 192,53.334c0,5.867, 4.801,10.666, 10.667,10.666l 106.665,0 c 5.867,0, 10.668-4.799, 10.668-10.666
		L 320,0 l-32,0 l0,21.334 c0,5.867-4.8,10.666-10.667,10.666l-42.666,0 c-5.866,0-10.667-4.799-10.667-10.666L 224,0 l-32,0 L 192,53.334 z"  />
<glyph unicode="&#xe058;" d="M 352,384L 160,384 L0,192l0-80 l0-48 c0-17.673, 14.327-32, 32-32l 448,0 c 17.674,0, 32,14.327, 32,32l0,48 l0,80 L 352,384z M 384,192l-64-64L 192,128 
	l-64,64L 41.655,192 l 133.333,160l 162.024,0 l 133.333-160L 384,192 z"  />
<glyph unicode="&#xe059;" d="M 352,384L 160,384 L0,192l0-128 c0-17.673, 14.327-32, 32-32l 448,0 c 17.674,0, 32,14.327, 32,32L 512,192 L 352,384z M 320,128L 192,128 l-32,32l 192,0 
		L 320,128z M 41.655,192l 133.333,160l 162.024,0 l 133.333-160L 41.655,192 zM 142.482,288L 369.518,288L 342.851,320L 169.148,320 	zM 89.149,224L 422.852,224L 396.185,256L 115.815,256 	z"  />
<glyph unicode="&#xe05a;" d="M 449.248,480 L 482.87,194.22 L 445.13,189.78 L 415.104,445 L 96.896,445 L 66.87,189.78 L 29.13,194.22 L 62.751,480 ZM 128,416L 384,416L 384,384L 128,384zM 128,352L 384,352L 384,320L 128,320zM 128,288L 384,288L 384,256L 128,256zM 128,224L 384,224L 384,192L 128,192zM 496,160L 16,160 c-8.8,0-13.723-6.83-10.94-15.179L 58.94-16.821C 61.723-25.17, 71.2-32, 80-32l 352,0 
	c 8.8,0, 18.276,6.83, 21.060,15.179l 53.881,161.643C 509.724,153.17, 504.8,160, 496,160z M 320,96L 192,96 l0,32 l 128,0 L 320,96 z"  />
<glyph unicode="&#xe05b;" d="M 416,448L 96,448 L0,352l0-336 c0-8.837, 7.163-16, 16-16l 480,0 c 8.836,0, 16,7.163, 16,16L 512,352 L 416,448z M 256,64L 96,192l 96,0 l0,96 l 128,0 l0-96 l 96,0 
	L 256,64z M 77.255,384l 32,32l 293.489,0 l 32-32L 77.255,384 z"  />
<glyph unicode="&#xe05c;" d="M 416,448L 96,448 L0,352l0-336 c0-8.837, 7.163-16, 16-16l 480,0 c 8.836,0, 16,7.163, 16,16L 512,352 L 416,448z M 320,160l0-96 L 192,64 l0,96 L 96,160 l 160,128
	l 160-128L 320,160 z M 77.255,384l 32,32l 293.488,0 l 32-32L 77.255,384 z"  />
<glyph unicode="&#xe05d;" d="M 256,192L 384,320L 288,320L 288,448L 224,448L 224,320L 128,320 	zM 372.363,244.364L 336.493,208.493L 466.533,160L 256,81.491L 45.467,160L 175.507,208.493L 139.636,244.364L0,192L0,64L 256-32L 512,64L 512,192 	z"  />
<glyph unicode="&#xe05e;" d="M 224,192L 288,192L 288,320L 384,320L 256,448L 128,320L 224,320 	zM 320,264L 320,214.644L 466.533,160L 256,81.491L 45.467,160L 192,214.644L 192,264L0,192L0,64L 256-32L 512,64L 512,192 	z"  />
<glyph unicode="&#xe05f;" d="M 448,480L0,480 l0-512 l 512,0 L 512,416 L 448,480z M 256,416l 64,0 l0-128 l-64,0 L 256,416 z M 448,32L 64,32 L 64,416 l 32,0 l0-160 l 288,0 L 384,416 l 37.489,0 L 448,389.491L 448,32 z"  />
<glyph unicode="&#xe060;" d="M 96,32l 320,0 c 53.019,0, 96,42.98, 96,96L0,128 C0,74.98, 42.981,32, 96,32z M 416,96l 32,0 l0-32 l-32,0 L 416,96 zM 480,416L 32,416L0,160L 512,160 	z"  />
<glyph unicode="&#xe061;" d="M 256,448c-70.692,0-134.688-28.66-181.016-74.989L0,448l0-192 l 192,0 l-71.766,71.761C 154.982,362.507, 202.98,384, 256,384
	c 106.034,0, 192-85.962, 192-192c0-57.348-25.146-108.818-65.009-144l 42.333-48C 478.475,46.908, 512,115.538, 512,192
	C 512,333.385, 397.385,448, 256,448z"  />
<glyph unicode="&#xe062;" d="M0,192c0-76.462, 33.524-145.092, 86.675-192l 42.333,48C 89.145,83.182, 64,134.652, 64,192c0,106.038, 85.965,192, 192,192
	c 53.021,0, 101.019-21.493, 135.765-56.239L 320,256l 192,0 L 512,448 l-74.985-74.989C 390.688,419.34, 326.693,448, 256,448
	C 114.615,448,0,333.385,0,192z"  />
<glyph unicode="&#xe063;" d="M0,288L 512,288L 512,480 		zM 512,0L 512,192L0,192 		z"  />
<glyph unicode="&#xe064;" d="M 288,480L 288-32L 480-32 		zM0-32L 192-32L 192,480 		z"  />
<glyph unicode="&#xe065;" d="M 380.931-32C 437.794,71.016, 447.375,228.153, 224,222.912L 224,96 L 32,288L 224,480l0-124.186 
	C 491.481,362.785, 521.285,119.707, 380.931-32z"  />
<glyph unicode="&#xe066;" d="M 288,355.814L 288,480 l 192-192L 288,96L 288,222.912 C 64.625,228.153, 74.206,71.016, 131.070-32
	C-9.286,119.707, 20.52,362.785, 288,355.814z"  />
<glyph unicode="&#xe067;" d="M 131.070,480C 74.206,376.984, 64.625,219.848, 288,225.088L 288,352 l 192-192L 288-32L 288,92.186 C 20.52,85.215-9.286,328.293, 131.070,480z"  />
<glyph unicode="&#xe068;" d="M 224,92.186L 224-32 L 32,160l 192,192l0-126.912 C 447.375,219.848, 437.794,376.984, 380.931,480
	C 521.286,328.293, 491.481,85.215, 224,92.186z"  />
<glyph unicode="&#xe069;" d="M 256,448 C 397.385,448 512,354.875 512,240 C 512,125.124 397.385,32 256,32 C 242.422,32 229.095,32.867 216.088,34.522 C 161.099-20.467 95.463-30.328 32-31.776 L 32-18.318 C 66.268-1.529 96,29.052 96,64 C 96,68.877 95.621,73.665 94.918,78.348 C 37.020,116.48 0,174.725 0,240 C 0,354.875 114.615,448 256,448 Z"  />
<glyph unicode="&#xe06a;" d="M 544,29.417 C 544,6.667 557.014-13.037 576-22.675 L 576-30.644 C 570.687-31.371 565.264-31.756 559.75-31.756 C 525.746-31.756 495.076-17.492 473.389,5.376 C 460.278,1.885 446.388,0 432,0 C 352.471,0 288,57.308 288,128 C 288,198.692 352.471,256 432,256 C 511.529,256 576,198.692 576,128 C 576,100.326 566.118,74.704 549.322,53.767 C 545.91,46.355 544,38.111 544,29.417 ZM 256,480 C 395.229,480 508.496,389.693 511.918,277.24 C 487.327,288.2 460.125,294 432,294 C 384.22,294 339.092,277.277 304.931,246.911 C 269.508,215.425 250,173.194 250,128 C 250,105.664 254.772,84.056 263.868,64.106 C 261.254,64.043 258.634,64 256,64 C 242.422,64 229.095,64.867 216.088,66.522 C 161.099,11.533 95.463,1.672 32,0.224 L 32,13.682 C 66.268,30.471 96,61.052 96,96 C 96,100.877 95.621,105.665 94.918,110.348 C 37.020,148.48 0,206.725 0,272 C 0,386.875 114.615,480 256,480 Z" horiz-adv-x="576"  />
<glyph unicode="&#xe06b;" d="M 240,480 L 240,480 C 372.548,480 480,393.043 480,285.776 C 480,178.509 372.548,91.552 240,91.552 C 0F36D62A48" horiz-adv-x="576"  />
<glyph unicode="&#xe06c;" d="M 256,384 C 228.534,384 202.006,379.669 177.153,371.129 C 153.797,363.102 133,351.757 115.339,337.407 C 82.232,310.508 64,275.915 64,240 C 64,219.851 69.594,200.311 80.626,181.924 C 92.002,162.964 109.117,145.631 130.12,131.798 C 145.298,121.802 155.51,105.824 158.208,87.851 C 159.108,81.859 159.672,75.807 159.893,69.789 C 163.628,72.886 167.268,76.212 170.833,79.777 C 182.91,91.853 199.223,98.522 216.084,98.522 C 218.768,98.522 221.465,98.354 224.162,98.010 C 234.649,96.677 245.361,96 256,96 C 283.467,96 309.994,100.33 334.847,108.871 C 358.203,116.898 379,128.243 396.661,142.593 C 429.768,169.491 448,204.085 448,240 C 448,275.915 429.768,310.508 396.661,337.407 C 379,351.756 358.203,363.102 334.847,371.129 C 309.994,379.669 283.467,384 256,384 Z M 256,448 L 256,448 C 397.385,448 512,354.875 512,240 C 512,125.124 397.385,32 256,32 C 242.422,32 229.095,32.867 216.088,34.522 C 161.099-20.467 95.463-30.328 32-31.776 L 32-18.318 C 66.268-1.529 96,29.052 96,64 C 96,68.877 95.621,73.665 94.918,78.348 C 37.020,116.48 0,174.725 0,240 C 0,354.875 114.615,448 256,448 Z"  />
<glyph unicode="&#xe06d;" d="M 544,29.417 C 544,6.667 557.014-13.037 576-22.675 L 576-30.644 C 570.687-31.371 565.264-31.756 559.001BF65A23" horiz-adv-x="576"  />
<glyph unicode="&#xe06e;" d="M 240,416 C 214.667,416 190.209,412.025 167.307,404.186 C 145.845,396.839 126.75,386.468 110.556,3730509DDDA55" horiz-adv-x="576"  />
<glyph unicode="&#xe06f;" d="M 311.413,128.632c-11.055,1.759-11.307,32.157-11.307,32.157s 32.484,32.158, 39.564,75.401
	c 19.045,0, 30.809,45.973, 11.761,62.148C 352.226,315.365, 375.911,432, 256,432c-119.911,0-96.225-116.635-95.432-133.662
	c-19.047-16.175-7.285-62.148, 11.761-62.148c 7.079-43.243, 39.564-75.401, 39.564-75.401s-0.252-30.398-11.307-32.157
	C 164.976,122.966, 32,64.315, 32,0l 224,0 l 224,0 C 480,64.315, 347.024,122.966, 311.413,128.632z"  />
<glyph unicode="&#xe070;" d="M 367.497,77.313c-9.476,1.494-9.692,27.327-9.692,27.327s 27.844,27.328, 33.912,64.076
	c 16.326,0, 26.407,39.069, 10.082,52.814c 0.681,14.47, 20.984,113.588-81.799,113.588c-102.782,0-82.479-99.118-81.799-113.588
	c-16.327-13.745-6.244-52.814, 10.081-52.814c 6.067-36.748, 33.913-64.076, 33.913-64.076s-0.216-25.833-9.692-27.327
	C 241.979,72.497, 128,22.655, 128-32l 192,0 l 192,0 C 512,22.655, 398.021,72.497, 367.497,77.313zM 172.027,68.595c 22.047,13.575, 48.813,26.154, 70.769,33.712c-7.876,11.216-16.647,26.468-22.165,44.531
	c-7.703,6.283-13.972,15.266-17.999,26.301c-4.033,11.052-5.561,23.426-4.304,34.842c 0.902,8.196, 3.239,15.833, 6.825,22.544
	c-2.175,23.293-3.707,69.017, 26.224,102.366c 11.607,12.933, 26.278,22.23, 43.85,27.843C 272.090,393.114, 255.647,431.119, 192,431.119
	c-102.782,0-82.479-99.118-81.799-113.588c-16.327-13.745-6.244-52.814, 10.081-52.814c 6.067-36.748, 33.913-64.076, 33.913-64.076
	s-0.216-25.833-9.692-27.327C 113.979,168.497,0,118.655,0,64l 164.798,0 C 167.153,65.537, 169.551,67.070, 172.027,68.595z"  />
<glyph unicode="&#xe071;" d="M 424-32L 88-32 c-13.255,0-24,10.745-24,24c0,34.431, 14.534,76.102, 38.879,111.471c 20.346,29.559, 45.342,51.81, 72.339,64.805
		c-11.899,10.822-22.147,24.013-30.254,39.061c-13,24.131-19.873,52.024-19.873,80.664c0,39.803, 13.102,77.411, 36.893,105.895
		C 186.816,423.626, 220.205,440, 256,440s 69.184-16.374, 94.017-46.105c 23.79-28.484, 36.893-66.091, 36.893-105.895
		c0-28.64-6.872-56.533-19.872-80.664c-8.107-15.048-18.355-28.239-30.255-39.061c 26.997-12.995, 51.993-35.246, 72.339-64.805
		C 433.466,68.102, 448,26.431, 448-8C 448-21.255, 437.255-32, 424-32z M 115.037,16l 281.926,0 
		c-4.613,19.67-14.26,41.192-27.381,60.255c-20.727,30.113-46.588,49.811-72.819,55.463c-11.053,2.382-18.944,12.155-18.944,23.462
		l0,17.146 c0,8.63, 4.633,16.595, 12.135,20.861c 29.739,16.916, 48.956,54.133, 48.956,94.813c0,57.346-37.192,104-82.909,104
		c-45.716,0-82.909-46.654-82.909-104c0-40.68, 19.217-77.896, 48.957-94.813c 7.501-4.267, 12.134-12.231, 12.134-20.861l0-17.146 
		c0-11.307-7.892-21.080-18.944-23.462c-26.231-5.652-52.092-25.35-72.82-55.463C 129.296,57.192, 119.651,35.67, 115.037,16z"  />
<glyph unicode="&#xe072;" d="M 488-32L 152-32 c-13.255,0-24,10.745-24,24c0,34.431, 14.534,76.102, 38.879,111.471c 20.346,29.559, 45.342,51.81, 72.339,64.805
		c-11.899,10.822-22.147,24.013-30.254,39.061c-13,24.131-19.873,52.024-19.873,80.664c0,39.803, 13.102,77.411, 36.893,105.895
		C 250.816,423.626, 284.205,440, 320,440s 69.184-16.374, 94.017-46.105c 23.79-28.484, 36.893-66.091, 36.893-105.895
		c0-28.64-6.872-56.533-19.872-80.664c-8.107-15.048-18.355-28.239-30.255-39.061c 26.997-12.995, 51.993-35.246, 72.339-64.805
		C 497.466,68.102, 512,26.431, 512-8C 512-21.255, 501.255-32, 488-32z M 179.037,16l 281.926,0 
		c-4.613,19.67-14.26,41.192-27.381,60.255c-20.727,30.113-46.588,49.811-72.819,55.463c-11.053,2.382-18.944,12.155-18.944,23.462
		l0,17.146 c0,8.63, 4.633,16.595, 12.135,20.861c 29.739,16.916, 48.956,54.133, 48.956,94.813c0,57.346-37.192,104-82.909,104
		s-82.909-46.654-82.909-104c0-40.68, 19.217-77.896, 48.957-94.813c 7.501-4.267, 12.134-12.231, 12.134-20.861l0-17.146 
		c0-11.307-7.892-21.080-18.944-23.462c-26.231-5.652-52.092-25.35-72.82-55.463C 193.296,57.192, 183.651,35.67, 179.037,16zM 98.557,48l-47.52,0 c 4.614,19.67, 14.259,41.192, 27.38,60.255c 20.728,30.113, 46.589,49.811, 72.82,55.463
		c 11.053,2.382, 18.944,12.155, 18.944,23.462l0,17.146 c0,8.63-4.633,16.595-12.134,20.861c-29.74,16.917-48.957,54.133-48.957,94.813
		c0,57.346, 37.192,104, 82.909,104c 3.127,0, 6.213-0.226, 9.251-0.651c 13.179,14.667, 28.117,26.587, 44.321,35.502
		C 228.975,467.467, 210.821,472, 192,472c-35.795,0-69.184-16.374-94.017-46.105C 74.193,397.411, 61.091,359.803, 61.091,320
		c0-28.64, 6.872-56.533, 19.873-80.664c 8.107-15.048, 18.355-28.238, 30.254-39.061c-26.997-12.995-51.993-35.246-72.339-64.805
		C 14.534,100.102,0,58.431,0,24c0-13.255, 10.745-24, 24-24l 66.193,0 C 90.931,15.513, 93.792,31.706, 98.557,48z"  />
<glyph unicode="&#xe073;" d="M 128,320A128,128 12780 1 1 384,320A128,128 12780 1 1 128,320zM 384,160L 128,160 C 57.308,160,0,102.691,0,32l0-32 l 4.033,0 l 503.934,0 L 512,0 l0,32 C 512,102.691, 454.692,160, 384,160z"  />
<glyph unicode="&#xe074;" d="M 160,384A96,96 10980 1 1 352,384A96,96 10980 1 1 160,384zM 384.039,256l-0.078,0 l-17.634,0 l-99.552-202.122L 304,240l-48,48l-48-48l 37.225-186.122L 145.674,256l-17.635,0 l-0.077,0 
		C 64,256, 64,213.007, 64,160l0-160 l 384,0 L 448,160 C 448,213.007, 448,256, 384.039,256z"  />
<glyph unicode="&#xe075;" d="M 112.5,256 C 174.356,256 224.5,205.855 224.5,144 C 224.5,82.144 174.356,32 112.5,32 C 50.644,32 0.5,82.144 0.5,144 L 0,160 C 0,283.712 100.288,384 224,384 L 224,320 C 181.263,320 141.083,303.357 110.863,273.137 C 105.046,267.319 99.737,261.129 94.948,254.627 C 100.667,255.527 106.528,256 112.5,256 ZM 400.5,256 C 462.355,256 512.5,205.855 512.5,144 C 512.5,82.144 462.355,32 400.5,32 C 338.645,32 288.5,82.144 288.5,144 L 288,160 C 288,283.712 388.288,384 512,384 L 512,320 C 469.263,320 429.083,303.357 398.863,273.137 C 393.045,267.319 387.736,261.129 382.947,254.627 C 388.667,255.527 394.527,256 400.5,256 Z"  />
<glyph unicode="&#xe076;" d="M 364.496,224C 433.373,267.667, 480,351.604, 480,448c0,10.838-0.596,21.517-1.739,32L 33.74,480 C 32.595,469.516, 32,458.837, 32,448
		c0-96.396, 46.627-180.333, 115.503-224C 78.627,180.333, 32,96.396, 32,0c0-10.838, 0.595-21.517, 1.739-32l 444.521,0 
		c 1.144,10.483, 1.739,21.162, 1.739,32C 480,96.396, 433.373,180.333, 364.496,224z M 80,0c0,93.456, 40.081,172.707, 112,198.854
		l0,50.293 l0,0 C 120.081,275.292, 80,354.543, 80,448l0,0 l 352,0 l0,0 c0-93.457-40.081-172.708-112-198.853l0-50.293 
		C 391.919,172.707, 432,93.456, 432,0L 80,0 zM 309.813,145.203c-35.827,20.322-37.804,46.684-37.813,62.683L 272,240 c0,15.997, 1.902,42.457, 37.872,62.832
		c 19.252,11.182, 35.904,28.174, 48.524,49.168L 153.605,352 c 12.633-21.016, 29.306-38.021, 48.583-49.203
		c 35.827-20.322, 37.803-46.683, 37.813-62.683L 240.001,208 c0-15.996-1.902-42.457-37.872-62.832c-36.311-21.090-63.369-62.842-71.545-113.168
		l 250.835,0 C 373.237,82.354, 346.154,124.124, 309.813,145.203z"  />
<glyph unicode="&#xe077;" d="M 192,416A64,64 12780 1 1 320,416A64,64 12780 1 1 192,416zM 327.765,359.765A64,64 12780 1 1 455.765,359.765A64,64 12780 1 1 327.765,359.765zM 416,224A32,32 12780 1 1 480,224A32,32 12780 1 1 416,224zM 359.765,88.235A32,32 12780 1 1 423.765,88.23500000000001A32,32 12780 1 1 359.765,88.23500000000001zM 224.001,32A32,32 12780 1 1 288.001,32A32,32 12780 1 1 224.001,32zM 88.236,88.235A32,32 12780 1 1 152.236,88.23500000000001A32,32 12780 1 1 88.236,88.23500000000001zM 72.236,359.765A48,48 12780 1 1 168.236,359.765A48,48 12780 1 1 72.236,359.765zM 28,224A36,36 12780 1 1 100,224A36,36 12780 1 1 28,224z"  />
<glyph unicode="&#xe078;" d="M 512,224c-0.639,33.431-7.892,66.758-21.288,97.231c-13.352,30.5-32.731,58.129-56.521,80.96
	c-23.776,22.848-51.972,40.91-82.492,52.826C 321.197,466.979, 288.401,472.693, 256,472c-32.405-0.641-64.666-7.687-94.167-20.678
	c-29.524-12.948-56.271-31.735-78.367-54.788c-22.112-23.041-39.58-50.354-51.093-79.899C 20.816,287.104, 15.309,255.375, 16,224
	c 0.643-31.38, 7.482-62.574, 20.067-91.103c 12.544-28.55, 30.738-54.414, 53.055-75.774c 22.305-21.377, 48.736-38.252, 77.307-49.36
	C 194.988-3.389, 225.652-8.688, 256-8c 30.354,0.645, 60.481,7.277, 88.038,19.457c 27.575,12.141, 52.558,29.74, 73.183,51.322
	c 20.641,21.57, 36.922,47.118, 47.627,74.715c 6.517,16.729, 10.94,34.2, 13.271,51.899c 0.623-0.036, 1.249-0.060, 1.881-0.060
	c 17.673,0, 32,14.326, 32,32c0,0.898-0.047,1.786-0.119,2.666L 512,223.999 z M 461.153,139.026c-11.736-26.601-28.742-50.7-49.589-70.59
	c-20.835-19.905-45.5-35.593-72.122-45.895C 312.828,12.202, 284.297,7.315, 256,8c-28.302,0.649-56.298,6.868-81.91,18.237
	c-25.625,11.333-48.842,27.745-67.997,47.856c-19.169,20.099-34.264,43.882-44.161,69.529C 51.997,169.264, 47.318,196.729, 48,224
	c 0.651,27.276, 6.664,54.206, 17.627,78.845c 10.929,24.65, 26.749,46.985, 46.123,65.405c 19.365,18.434, 42.265,32.935, 66.937,42.428
	C 203.356,420.208, 229.755,424.681, 256,424c 26.25-0.653, 52.114-6.459, 75.781-17.017c 23.676-10.525, 45.128-25.751, 62.812-44.391
	c 17.698-18.629, 31.605-40.647, 40.695-64.344C 444.412,274.552, 448.679,249.219, 448,224l 0.119,0 c-0.072-0.88-0.119-1.768-0.119-2.666
	c0-16.506, 12.496-30.087, 28.543-31.812C 473.431,172.111, 468.278,155.113, 461.153,139.026z"  />
<glyph unicode="&#xe079;" d="M 96,224c0,6.090, 0.352,12.098, 1.015,18.011l-92.49,30.052C 1.567,256.493,0,240.431,0,224
			c0-73.615, 31.083-139.961, 80.827-186.662l 57.142,78.648C 111.907,144.449, 96,182.365, 96,224zM 416,224c0-41.634-15.906-79.551-41.969-108.014l 57.142-78.648C 480.917,84.039, 512,150.385, 512,224
			c0,16.431-1.566,32.493-4.524,48.063l-92.49-30.052C 415.648,236.097, 416,230.090, 416,224zM 288,380.796c 45.967-9.331, 84.772-38.371, 107.225-77.913l 92.489,30.051C 451.116,410.644, 376.594,466.964, 288,478.012L 288,380.796 zM 116.775,302.884c 22.453,39.542, 61.258,68.582, 107.225,77.913L 224,478.012 C 135.406,466.964, 60.885,410.644, 24.287,332.935
			L 116.775,302.884zM 322.278,78.336C 302.083,69.132, 279.642,64, 256,64s-46.083,5.132-66.277,14.335l-57.146-78.655
			C 169.18-20.503, 211.245-32, 256-32s 86.82,11.497, 123.424,31.68L 322.278,78.336z"  />
<glyph unicode="&#xe07a;" d="M 256,480C 114.615,480,0,365.385,0,224s 114.615-256, 256-256s 256,114.615, 256,256S 397.385,480, 256,480z M 256,352
	c 70.692,0, 128-57.308, 128-128s-57.308-128-128-128s-128,57.308-128,128S 185.308,352, 256,352z M 408.735,71.265
	C 367.938,30.468, 313.695,8, 256,8c-57.696,0-111.938,22.468-152.735,63.265C 62.468,112.062, 40,166.304, 40,224
	c0,57.695, 22.468,111.938, 63.265,152.735l 33.941-33.941c0,0,0,0,0,0c-65.503-65.503-65.503-172.085,0-237.588
	C 168.937,73.475, 211.125,56, 256,56c 44.874,0, 87.062,17.475, 118.794,49.206c 65.503,65.503, 65.503,172.084,0,237.588l 33.941,33.941
	C 449.532,335.938, 472,281.695, 472,224C 472,166.304, 449.532,112.062, 408.735,71.265z"  />
<glyph unicode="&#xe07b;" d="M 256,480 C 116.626,480 3.271,368.619 0.076,230.013 C 3.036,350.945 94.992,448 208,448 C 322.875,448 416,347.712 416,224 C 416,197.49 437.49,176 464,176 C 490.51,176 512,197.49 512,224 C 512,365.385 397.385,480 256,480 ZM 256-32 C 395.374-32 508.729,79.381 511.924,217.987 C 508.964,97.055 417.008,0 304,0 C 189.125,0 96,100.288 96,224 C 96,250.51 74.51,272 48,272 C 21.49,272 0,250.51 0,224 C 0,82.615 114.615-32 256-32 Z"  />
<glyph unicode="&#xe07c;" d="M 512,288 L 320,288 L 391.765,359.765 C 355.5,396.028 307.285,416 256,416 C 204.715,416 156.5,396.028 120.235,359.765 C 83.972,323.5 64,275.285 64,224 C 64,172.715 83.972,124.5 120.235,88.235 C 156.5,51.972 204.715,32 256,32 C 307.285,32 355.5,51.972 391.764,88.236 C 394.792,91.263 397.694,94.382 400.492,97.57 L 448.652,55.429 C 401.729,1.846 332.82-32 256-32 C 114.615-32 0,82.615 0,224 C 0,365.385 114.615,480 256,480 C 326.693,480 390.684,451.337 437.008,405.008 L 512,480 L 512,288 Z"  />
<glyph unicode="&#xe07d;" d="M 32,480L 224,480L 224,448L 32,448zM 288,480L 480,480L 480,448L 288,448zM 476,320l-28,0 L 448,448 L 320,448 l0-128 L 192,320 L 192,448 L 64,448 l0-128 L 36,320 c-19.8,0-36-16.2-36-36l0-280 c0-19.8, 16.2-36, 36-36l 152,0 c 19.8,0, 36,16.2, 36,36L 224,192 l 64,0 
	l0-188 c0-19.8, 16.2-36, 36-36l 152,0 c 19.8,0, 36,16.2, 36,36L 512,284 C 512,303.8, 495.8,320, 476,320z M 174,0L 50,0 c-9.9,0-18,7.2-18,16
	s 8.1,16, 18,16l 124,0 c 9.9,0, 18-7.2, 18-16S 183.9,0, 174,0z M 272,224l-32,0 c-8.8,0-16,7.2-16,16s 7.2,16, 16,16l 32,0 c 8.8,0, 16-7.2, 16-16
	S 280.8,224, 272,224z M 462,0L 338,0 c-9.9,0-18,7.2-18,16s 8.1,16, 18,16l 124,0 c 9.9,0, 18-7.2, 18-16S 471.9,0, 462,0z"  />
<glyph unicode="&#xe07e;" d="M 496.131,44.302L 374.855,147.449c-12.537,11.283-25.945,16.463-36.776,15.963C 366.707,196.946, 384,240.451, 384,288
	C 384,394.039, 298.039,480, 192,480C 85.962,480,0,394.039,0,288c0-106.039, 85.961-192, 192-192c 47.549,0, 91.054,17.293, 124.588,45.922
	c-0.5-10.831, 4.68-24.239, 15.963-36.776l 103.147-121.276c 17.661-19.623, 46.511-21.277, 64.11-3.678S 515.754,26.641, 496.131,44.302z
	 M 192,160c-70.692,0-128,57.308-128,128S 121.308,416, 192,416s 128-57.308, 128-128S 262.693,160, 192,160z"  />
<glyph unicode="&#xe07f;" d="M 496.131,44.302L 374.855,147.449c-12.537,11.283-25.945,16.463-36.776,15.963C 366.707,196.946, 384,240.451, 384,288
		C 384,394.039, 298.039,480, 192,480C 85.962,480,0,394.039,0,288c0-106.039, 85.961-192, 192-192c 47.549,0, 91.054,17.293, 124.588,45.922
		c-0.5-10.831, 4.68-24.239, 15.963-36.776l 103.147-121.276c 17.661-19.623, 46.511-21.277, 64.11-3.678S 515.754,26.641, 496.131,44.302
		z M 192,160c-70.692,0-128,57.308-128,128S 121.308,416, 192,416s 128-57.308, 128-128S 262.693,160, 192,160zM 224,384L 160,384L 160,320L 96,320L 96,256L 160,256L 160,192L 224,192L 224,256L 288,256L 288,320L 224,320 	z"  />
<glyph unicode="&#xe080;" d="M 496.131,44.302L 374.855,147.449c-12.537,11.283-25.945,16.463-36.776,15.963C 366.707,196.946, 384,240.451, 384,288
		C 384,394.039, 298.039,480, 192,480C 85.962,480,0,394.039,0,288c0-106.039, 85.961-192, 192-192c 47.549,0, 91.054,17.293, 124.588,45.922
		c-0.5-10.831, 4.68-24.239, 15.963-36.776l 103.147-121.276c 17.661-19.623, 46.511-21.277, 64.11-3.678S 515.754,26.641, 496.131,44.302
		z M 192,160c-70.692,0-128,57.308-128,128S 121.308,416, 192,416s 128-57.308, 128-128S 262.693,160, 192,160zM 96,320L 288,320L 288,256L 96,256z"  />
<glyph unicode="&#xe081;" d="M 512,480 L 512,288 L 442.87,357.13 L 336.87,251.13 L 283.13,304.87 L 389.13,410.87 L 320,480 ZM 1220120010A02"  />
<glyph unicode="&#xe082;" d="M 32,192 L 224,192 L 224,0 L 154.87,69.13 L 53.87-31.87 L 0.13,21.87 L 101.13,122.87 ZM 410.87,122.808F87DEA53"  />
<glyph unicode="&#xe083;" d="M 512,480 L 512,272 L 432,352 L 336,256 L 288,304 L 384,400 L 304,480 ZM 224,144 L 128,48 L 208-32 L 0-32 L 0,176 L 80,96 L 176,192 Z"  />
<glyph unicode="&#xe084;" d="M 224,192 L 224-16 L 144,64 L 48-32 L 0,16 L 96,112 L 16,192 ZM 512,432 L 416,336 L 496,256 L 288,256 L 288,464 L 368,384 L 464,480 Z"  />
<glyph unicode="&#xe085;" d="M 501.066,322.879l-50.553,50.552c-12.396,12.397-32.685,32.684-45.081,45.082l-50.553,50.552
	c-12.396,12.397-34.477,14.583-49.065,4.858L 167.595,381.777c-14.588-9.726-20.109-30.514-12.268-46.195l 35.243-70.487
	c 1.077-2.153, 2.323-4.448, 3.695-6.83L 16,80L0-32l 96,0 l0,32 l 64,0 l0,64 l 64,0 l0,64l 64,0 l0,35.593 c 3.198-1.906, 6.267-3.608, 9.096-5.022
	l 70.485-35.244c 15.683-7.841, 36.47-2.319, 46.195,12.269l 92.147,138.22C 515.65,288.402, 513.462,310.481, 501.066,322.879z
	 M 75.314,52.687l-22.627,22.627l 155.786,155.785l 22.627-22.627L 75.314,52.687z M 458.51,268.118l-22.628-22.628
	c-6.223-6.222-16.404-6.222-22.627,0L 277.49,381.255c-6.223,6.222-6.223,16.405,0,22.627l 22.628,22.628
	c 6.223,6.222, 16.404,6.222, 22.627,0L 458.51,290.745C 464.733,284.523, 464.733,274.34, 458.51,268.118z"  />
<glyph unicode="&#xe086;" d="M 352,480c-88.365,0-160-71.634-160-160c0-10.013, 0.929-19.808, 2.688-29.312L0,96l0-96 c0-17.673, 14.327-32, 32-32
	l 32,0 l0,32 l 64,0 l0,64 l 64,0 l0,64 l 64,0 l 41.521,41.521C 314.526,163.363, 332.869,160, 352,160c 88.365,0, 160,71.634, 160,160S 440.365,480, 352,480z
	 M 399.937,319.937c-26.51,0-48,21.49-48,48s 21.49,48, 48,48s 48-21.49, 48-48S 426.447,319.937, 399.937,319.937z"  />
<glyph unicode="&#xe087;" d="M 416,256l-32,0 l0,96 C 384,422.692, 326.692,480, 256,480c-70.692,0-128-57.308-128-128l0-96 L 96,256 c-17.6,0-32-14.4-32-32l0-224 
	c0-17.6, 14.4-32, 32-32l 320,0 c 17.6,0, 32,14.4, 32,32L 448,224 C 448,241.6, 433.6,256, 416,256z M 256,64c-17.673,0-32,14.327-32,32
	s 14.327,32, 32,32s 32-14.327, 32-32S 273.673,64, 256,64z M 320,256L 192,256 l0,96 c0,35.29, 28.71,64, 64,64s 64-28.71, 64-64L 320,256 z"  />
<glyph unicode="&#xe088;" d="M 296,256l-8,0 l0,96 c0,52.935-43.065,96-96,96l-64,0 c-52.935,0-96-43.065-96-96l0-96 l-8,0 c-13.2,0-24-10.8-24-24l0-240 
	c0-13.2, 10.8-24, 24-24l 272,0 c 13.2,0, 24,10.8, 24,24L 320,232 C 320,245.2, 309.2,256, 296,256z M 192,32l-64,0 l 13.92,69.6
	C 133.516,107.366, 128,117.037, 128,128c0,17.673, 14.327,32, 32,32c 17.673,0, 32-14.327, 32-32c0-10.963-5.516-20.634-13.92-26.4L 192,32
	z M 224,256L 96,256 l0,96 c0,17.645, 14.355,32, 32,32l 64,0 c 17.645,0, 32-14.355, 32-32L 224,256 z"  />
<glyph unicode="&#xe089;" d="M 384,448l-64,0 c-52.935,0-96-43.065-96-96l0-96 L 24,256 c-13.2,0-24-10.8-24-24l0-240 c0-13.2, 10.8-24, 24-24l 272,0 c 13.2,0, 24,10.8, 24,24L 320,232 
	c0,13.2-10.8,24-24,24l-8,0 l0,96 c0,17.645, 14.355,32, 32,32l 64,0 c 17.645,0, 32-14.355, 32-32l0-96 l 64,0 l0,96 C 480,404.935, 436.935,448, 384,448z
	 M 192,32l-64,0 l 13.92,69.6C 133.516,107.366, 128,117.037, 128,128c0,17.673, 14.327,32, 32,32c 17.673,0, 32-14.327, 32-32
	c0-10.963-5.516-20.634-13.92-26.4L 192,32z"  />
<glyph unicode="&#xe08a;" d="M 501.467,71.062l-230.276,197.38C 281.915,288.591, 288,311.583, 288,336C 288,415.529, 223.529,480, 144,480
	c-14.547,0-28.586-2.166-41.823-6.177l 83.195-83.195c 12.445-12.445, 12.445-32.81,0-45.255l-50.745-50.745
	c-12.445-12.445-32.81-12.445-45.255,0L 6.177,377.823C 2.166,364.586,0,350.547,0,336c0-79.529, 64.471-144, 144-144
	c 24.417,0, 47.409,6.085, 67.558,16.81l 197.38-230.276c 11.454-13.362, 31.008-14.113, 43.452-1.669l 50.746,50.746
	C 515.58,40.055, 514.829,59.608, 501.467,71.062z"  />
<glyph unicode="&#xe08b;" d="M 224,416l0,8 c0,13.2-10.8,24-24,24l-80,0 c-13.2,0-24-10.8-24-24l0-8 L0,416 l0-64 l 96,0 l0-8 c0-13.2, 10.8-24, 24-24l 80,0 c 13.2,0, 24,10.8, 24,24l0,8 
		l 288,0 L 512,416 L 224,416 z M 128,352L 128,416 l 64,0 l0-64 L 128,352 zM 416,264c0,13.2-10.8,24-24,24l-80,0 c-13.2,0-24-10.8-24-24l0-8 L0,256 l0-64 l 288,0 l0-8 c0-13.2, 10.8-24, 24-24l 80,0 c 13.2,0, 24,10.8, 24,24l0,8 
		l 96,0 l0,64 l-96,0 L 416,264 z M 320,192l0,64 l 64,0 l0-64 L 320,192 zM 224,104c0,13.2-10.8,24-24,24l-80,0 c-13.2,0-24-10.8-24-24l0-8 L0,96 l0-64 l 96,0 l0-8 c0-13.2, 10.8-24, 24-24l 80,0 c 13.2,0, 24,10.8, 24,24l0,8 
		l 288,0 l0,64 L 224,96 L 224,104 z M 128,32l0,64 l 64,0 l0-64 L 128,32 z"  />
<glyph unicode="&#xe08c;" d="M 448,256l 8,0 c 13.2,0 24,10.8 24,24l0,80 c0,13.2-10.8,24-24,24l-8,0 L 448,480 l-64,0 l 0-96 l-8,0 c-13.2,0, -24-10.8, -24-24l 0-80 c 0-13.2, 10.8-24, 24-24l 8,0 
		l 0-288 L 448-32 L 448,256 z M 384,352L 448,352 l 0-64 l-64,0 L 384,352 zM 296,64c 13.2,0 24,10.8 24,24l0,80 c0,13.2-10.8,24-24,24l-8,0 L 288,480 l-64,0 l 0-288 l-8,0 c-13.2,0, -24-10.8, -24-24l 0-80 c 0-13.2, 10.8-24, 24-24l 8,0 
		l 0-96 l 64,0 l0,96 L 296,64 z M 224,160l 64,0 l 0-64 l-64,0 L 224,160 zM 136,256c 13.2,0 24,10.8 24,24l0,80 c0,13.2-10.8,24-24,24l-8,0 L 128,480 l-64,0 l 0-96 l-8,0 c-13.2,0, -24-10.8, -24-24l 0-80 c 0-13.2, 10.8-24, 24-24l 8,0 
		l 0-288 l 64,0 L 128,256 L 136,256 z M 64,352l 64,0 l 0-64 l-64,0 L 64,352 z"  />
<glyph unicode="&#xe08d;" d="M 466.895,174.875c-26.863,46.527-10.708,106.152, 36.076,133.244l-50.313,87.146c-14.375-8.427-31.088-13.259-48.923-13.259
	c-53.768,0-97.354,43.873-97.354,97.995L 205.752,480.001 c 0.133-16.705-4.037-33.641-12.979-49.126
	c-26.862-46.528-86.578-62.351-133.431-35.379L 9.030,308.35c 14.485-8.236, 27.025-20.294, 35.943-35.739
	c 26.819-46.454, 10.756-105.96-35.854-133.112l 50.313-87.146c 14.325,8.348, 30.958,13.127, 48.7,13.127
	c 53.598,0, 97.072-43.596, 97.35-97.479l 100.627,0 c-0.043,16.537, 4.136,33.285, 12.983,48.609
	c 26.818,46.453, 86.388,62.297, 133.207,35.506l 50.313,87.145C 488.222,147.494, 475.766,159.51, 466.895,174.875z M 256,120.334
	c-57.254,0-103.668,46.412-103.668,103.667c0,57.254, 46.413,103.667, 103.668,103.667c 57.254,0, 103.666-46.413, 103.666-103.667
	C 359.665,166.746, 313.254,120.334, 256,120.334z"  />
<glyph unicode="&#xe08e;" d="M 181.861,118.974l 20.649,28.908l-22.627,22.628l-28.909-20.648c-5.361,2.997-11.102,5.387-17.133,7.096L 128,192L 96,192 
		l-5.84-35.043c-6.031-1.709-11.772-4.099-17.133-7.096L 44.118,170.51L 21.49,147.882l 20.649-28.908
		c-2.997-5.36-5.387-11.103-7.096-17.133L0,96l0-32 l 35.043-5.841c 1.709-6.030, 4.099-11.772, 7.096-17.133L 21.49,12.118l 22.627-22.628
		l 28.909,20.648c 5.361-2.997, 11.102-5.387, 17.133-7.096L 96-32l 32,0 l 5.84,35.043c 6.031,1.709, 11.772,4.099, 17.133,7.096l 28.909-20.648
		l 22.627,22.628l-20.649,28.908c 2.997,5.36, 5.387,11.103, 7.096,17.133L 224,64l0,32 l-35.043,5.841
		C 187.248,107.871, 184.858,113.613, 181.861,118.974z M 112,48c-17.674,0-32,14.327-32,32s 14.326,32, 32,32s 32-14.327, 32-32
		S 129.674,48, 112,48zM 512,288l0,32 l-33.691,6.125c-0.621,4.023-1.416,7.989-2.362,11.895l 28.779,18.55L 492.48,386.134l-33.472-7.234
		c-2.107,3.455-4.363,6.81-6.746,10.065l 19.503,28.171l-22.628,22.627l-28.171-19.503c-3.256,2.383-6.61,4.638-10.065,6.747
		l 7.234,33.472L 388.571,472.726l-18.55-28.779c-3.906,0.946-7.872,1.741-11.895,2.362L 352,480l-32,0 l-6.126-33.691
		c-4.023-0.621-7.988-1.416-11.895-2.362L 283.43,472.726L 253.866,460.48l 7.234-33.472c-3.455-2.108-6.81-4.364-10.065-6.747
		l-28.171,19.503l-22.627-22.627l 19.503-28.171c-2.383-3.255-4.639-6.61-6.747-10.065l-33.472,7.234l-12.246-29.564l 28.779-18.55
		c-0.946-3.906-1.741-7.871-2.362-11.895L 160,320l0-32 l 33.691-6.125c 0.621-4.023, 1.416-7.989, 2.362-11.895l-28.779-18.55
		l 12.246-29.564l 33.472,7.234c 2.108-3.455, 4.364-6.809, 6.747-10.065l-19.503-28.171l 22.627-22.628l 28.171,19.503
		c 3.255-2.383, 6.61-4.638, 10.065-6.746l-7.234-33.472l 29.564-12.246l 18.551,28.779c 3.905-0.946, 7.871-1.741, 11.894-2.362L 320,128l 32,0 
		l 6.126,33.691c 4.022,0.621, 7.988,1.416, 11.895,2.362l 18.55-28.779l 29.564,12.246l-7.234,33.472
		c 3.455,2.108, 6.81,4.363, 10.065,6.746l 28.171-19.503l 22.628,22.628l-19.503,28.171c 2.383,3.256, 4.638,6.61, 6.746,10.065
		l 33.472-7.234l 12.246,29.565l-28.779,18.55c 0.946,3.906, 1.741,7.871, 2.362,11.895L 512,288z M 336,234.4
		c-38.439,0-69.6,31.161-69.6,69.6c0,38.439, 31.16,69.6, 69.6,69.6s 69.6-31.161, 69.6-69.6C 405.6,265.561, 374.44,234.4, 336,234.4z"  />
<glyph unicode="&#xe08f;" d="M 512,175.953l0,96.094 l-73.387,12.231c-2.979,9.066-6.611,17.834-10.847,26.25l 43.227,60.517l-67.948,67.949l-60.413-43.152
		c-8.455,4.277-17.269,7.944-26.384,10.951L 304.047,480l-96.094,0 l-12.201-73.208c-9.115-3.007-17.929-6.674-26.383-10.951
		l-60.414,43.152l-67.949-67.949l 43.227-60.518c-4.235-8.415-7.867-17.183-10.846-26.249L0,272.047l0-96.094 l 73.559-12.26
		c 2.98-8.984, 6.605-17.674, 10.821-26.015l-43.374-60.724l 67.949-67.948l 60.827,43.447c 8.301-4.175, 16.945-7.764, 25.882-10.717
		L 207.953-32l 96.094,0 l 12.289,73.737c 8.937,2.953, 17.581,6.542, 25.883,10.716l 60.826-43.446l 67.948,67.948l-43.372,60.723
		c 4.216,8.341, 7.839,17.031, 10.82,26.016L 512,175.953z M 256,160c-35.346,0-64,28.653-64,64c0,35.346, 28.654,64, 64,64
		c 35.347,0, 64-28.654, 64-64C 320,188.653, 291.347,160, 256,160z"  />
<glyph unicode="&#xe090;" d="M 504.998,65.512L 354.226,216.284c-9.334,9.334-24.607,9.334-33.941,0l-11.313-11.313l-92,92L 368,448L 208,448 l-71.029-71.029
	L 129.941,384L 96,384 l0-33.941 l 7.029-7.029L0,240l 80-80l 103.029,103.029l 92-92l-11.313-11.313c-9.334-9.334-9.334-24.607,0-33.941
	l 150.772-150.772c 9.334-9.334, 24.607-9.334, 33.941,0l 56.568,56.568C 514.332,40.904, 514.332,56.178, 504.998,65.512z"  />
<glyph unicode="&#xe091;" d="M 128,384L 64,448L 32,448L 32,416L 96,352 	zM 160,480L 192,480L 192,416L 160,416zM 288,320L 352,320L 352,288L 288,288zM 320,416L 320,448L 288,448L 224,384L 256,352 	zM0,320L 64,320L 64,288L0,288zM 160,192L 192,192L 192,128L 160,128zM 32,192L 32,160L 64,160L 128,224L 96,256 	zM 505,39L 186.941,357.059c-9.334,9.334-24.607,9.334-33.941,0L 122.941,327c-9.334-9.334-9.334-24.607,0-33.941L 441-25
		c 9.334-9.334, 24.607-9.334, 33.941,0L 505,5.059C 514.334,14.393, 514.334,29.666, 505,39z M 240,208l-96,96l 32,32l 96-96L 240,208z"  />
<glyph unicode="&#xe092;" d="M 448,352l-96,0 L 352,416 c0,17.6-14.4,32-32,32L 192,448 c-17.6,0-32-14.4-32-32l0-64 L 64,352 c-35.2,0-64-28.8-64-64l0-256 c0-35.2, 28.8-64, 64-64l 384,0 
	c 35.2,0, 64,28.8, 64,64L 512,288 C 512,323.2, 483.2,352, 448,352z M 192,416l 128,0 l0-64 L 192,352 L 192,416 z M 384,128l-96,0 l0-96 l-64,0 l0,96 l-96,0 l0,64 l 96,0 l0,96 l 64,0 l0-96 l 96,0 
	L 384,128 z"  />
<glyph unicode="&#xe093;" d="M 512,192l0,32 l-96.645,0 c-2.931,36.343-15.893,69.513-35.835,96.125l 80.972,0 l 35.030,140.12l-31.045,7.761l-28.97-115.88l-87.34,0 
	c-0.446,0.347-0.898,0.687-1.349,1.028c 3.355,9.751, 5.181,20.211, 5.181,31.097C 352,437.131, 309.020,480, 256,480s-96-42.869-96-95.75
	c0-10.886, 1.825-21.346, 5.181-31.097c-0.45-0.342-0.902-0.681-1.349-1.028l-87.34,0 l-28.97,115.88l-31.045-7.761l 35.030-140.12l 80.972,0 
	C 112.537,293.513, 99.576,260.343, 96.645,224L0,224 l0-32 l 96.685,0 c 1.901-22.832, 7.754-44.406, 16.819-63.875L 51.508,128.125 l-35.030-140.119
	l 31.045-7.762l 28.97,115.881l 56.177,0 C 162.016,57.109, 206.368,32.25, 256,32.25s 93.983,24.859, 123.331,63.875l 56.177,0 l 28.97-115.881
	l 31.045,7.762l-35.030,140.119l-61.996,0 c 9.065,19.469, 14.918,41.043, 16.818,63.875L 512,192 z"  />
<glyph unicode="&#xe094;" d="M 224,192L 224,416 C 100.288,416,0,315.712,0,192s 100.288-224, 224-224s 224,100.288, 224,224c0,36.017-8.514,70.042-23.618,100.191
		L 224,192zM 456.382,356.191C 419.606,429.599, 343.695,480, 256,480l0-224 L 456.382,356.191z"  />
<glyph unicode="&#xe095;" d="M 64,32 L 512,32 L 512-32 L 0-32 L 0,480 L 64,480 ZM 144,64 C 117.49,64 96,85.49 96,112 C 96,138.51 117.49,160 144,160 C 145.414,160 146.811,159.926 148.194,159.807 L 199.79,245.8 C 194.87,253.335 192,262.331 192,272.001 C 192,298.511 213.49,320.001 240,320.001 C 266.51,320.001 288,298.511 288,272.001 C 288,262.33 285.13,253.335 280.21,245.8 L 331.806,159.807 C 333.189,159.926 334.586,160 336,160 C 337.068,160 338.124,159.953 339.175,159.885 L 424.353,308.946 C 419.085,316.65 416,325.964 416,336.001 C 416,362.511 437.49,384.001 464,384.001 C 490.51,384.001 512,362.511 512,336.001 C 512,309.491 490.51,288.001 464,288.001 C 462.93,288.001 461.876,288.048 460.825,288.117 L 375.647,139.055 C 380.915,131.352 384,122.037 384,112 C 384,85.49 362.51,64 336,64 C 309.49,64 288,85.49 288,112 C 288,121.67 290.87,130.666 295.789,138.201 L 244.194,224.193 C 242.811,224.074 241.414,224 240,224 C 238.586,224 237.189,224.073 235.806,224.193 L 184.21,138.2 C 189.13,130.666 192,121.67 192,112 C 192,85.49 170.51,64 144,64 Z"  />
<glyph unicode="&#xe096;" d="M0,64L 512,64L 512,0L0,0zM 64,192L 128,192L 128,96L 64,96zM 160,320L 224,320L 224,96L 160,96zM 256,224L 320,224L 320,96L 256,96zM 352,416L 416,416L 416,96L 352,96z"  />
<glyph unicode="&#xe097;" d="M 144,288L 48,288 c-8.8,0-16-7.2-16-16l0-288 c0-8.8, 7.2-16, 16-16l 96,0 c 8.8,0, 16,7.2, 16,16L 160,272 C 160,280.8, 152.8,288, 144,288z M 144,0
		L 48,0 L 48,128 l 96,0 L 144,0 zM 304,352l-96,0 c-8.8,0-16-7.2-16-16l0-352 c0-8.8, 7.2-16, 16-16l 96,0 c 8.8,0, 16,7.2, 16,16L 320,336 C 320,344.8, 312.8,352, 304,352z
		 M 304,0l-96,0 L 208,160 l 96,0 L 304,0 zM 464,416l-96,0 c-8.8,0-16-7.2-16-16l0-416 c0-8.8, 7.2-16, 16-16l 96,0 c 8.8,0, 16,7.2, 16,16L 480,400 C 480,408.8, 472.8,416, 464,416z M 464,0l-96,0 
		L 368,192 l 96,0 L 464,0 z"  />
<glyph unicode="&#xe098;" d="M 385.758,320c 9.063,6.44, 17.756,13.608, 25.722,21.574c 16.701,16.701, 27.873,37.25, 31.456,57.861
	c 3.929,22.593-1.836,43.57-15.815,57.55c-11.15,11.149-26.255,17.043-43.682,17.043c-24.816,0-50.961-11.912-71.73-32.681
	c-33.238-33.238-52.613-79.119-63.038-111.861c-7.72,32.901-23.103,77.322-53.009,107.229C 179.615,452.761, 159.105,461, 139.739,461
	c-15.827,0-30.89-5.502-42.13-16.743c-24.993-24.994-21.616-68.893, 7.543-98.052c 10.396-10.396, 22.549-19.031, 35.36-26.206L 32,319.999 l0-128 
	l 32,0 l0-224 l 384,0 L 448,192 l 32,0 L 480,320 L 385.758,320 z M 337.163,415.891c 13.862,13.862, 31.161,22.137, 46.275,22.137c 5.35,0, 12.854-1.127, 18.225-6.499
	c 13.015-13.014, 5.706-43.154-15.64-64.499c-21.973-21.973-51.53-37.084-77.216-47.030l-25.336,0 
	C 292.755,348.774, 309.5,388.228, 337.163,415.891z M 116.967,399.555c-0.351,4.56-0.025,13.124, 6.098,19.247
	C 128.187,423.924, 134.959,425, 139.739,425l0,0 c 10.629,0, 21.734-5.008, 30.466-13.74c 16.936-16.936, 30.883-43.886, 40.334-77.938
	c 0.255-0.92, 0.504-1.835, 0.748-2.743c-0.908,0.243-1.823,0.492-2.743,0.748c-34.052,9.452-61.001,23.399-77.937,40.335
	C 122.693,379.575, 117.722,389.742, 116.967,399.555z M 224,0L 96,0 L 96,208 l 128,0 L 224,0 z M 224,224L 64,224 l0,64 l 160,0 L 224,224 z M 416,0L 288,0 L 288,208 l 128,0 L 416,0 z
	 M 448,224L 288,224 l0,64 l 160,0 L 448,224 z"  />
<glyph unicode="&#xe099;" d="M 416,384L 416,448 L 96,448 l0-64 L0,384 l0-32 l0-32 c0-53.019, 42.979-96, 96-96c 10.038,0, 19.715,1.543, 28.81,4.401
	c 23.087-33.004, 58.304-56.898, 99.19-65.198L 224,64 l-32,0 c-35.347,0-64-28.653-64-64l 256,0 c0,35.347-28.653,64-64,64l-32,0 l0,99.203 
	c 40.886,8.3, 76.103,32.193, 99.19,65.198C 396.285,225.543, 405.962,224, 416,224c 53.021,0, 96,42.981, 96,96l0,32 L 512,384 L 416,384 z M 96,262
	c-31.981,0-58,26.019-58,58l0,32 l 58,0 l0-32 c0-20.093, 3.715-39.316, 10.477-57.034C 103.076,262.343, 99.578,262, 96,262z M 474,320
	c0-31.981-26.019-58-58-58c-3.578,0-7.076,0.343-10.477,0.966C 412.285,280.684, 416,299.907, 416,320l0,32 l 58,0 L 474,320 z"  />
<glyph unicode="&#xe09a;" d="M 304,288 C 288,272 288,272 288,256 L 288,32 L 352,32 C 369.673,32 384,17.673 384,0 L 128,0 C 128,17.673 142.327,32 160,32 L 224,32 L 224,256 C 224,272 224,272 208,288 L 70.627,425.373 C 58.182,437.818 62.4,448 80,448 L 432,448 C 449.6,448 453.817,437.818 441.373,425.373 L 304.005,288.005 C 304.003,288.003 304.002,288.001 304,288 Z"  />
<glyph unicode="&#xe09b;" d="M 416,320l-32,0 l0,48 c0,44.183-85.961,80-192,80C 85.961,448,0,412.183,0,368l0-288 c0-44.183, 85.961-80, 192-80
	c 106.039,0, 192,35.817, 192,80l0,48 l 32,0 c 52.8,0, 96,43.2, 96,96S 468.8,320, 416,320z M 88.028,385.199C 116.999,394.744, 153.923,400, 192,400
	s 75.002-5.256, 103.972-14.801c 18.497-6.094, 29.704-12.623, 35.705-17.199c-6.001-4.576-17.208-11.104-35.705-17.199
	C 267.002,341.256, 230.077,336, 192,336s-75.001,5.256-103.972,14.801C 69.531,356.896, 58.324,363.424, 52.323,368
	C 58.324,372.576, 69.531,379.104, 88.028,385.199z M 452.182,195.818C 447.768,191.404, 438.237,184, 424,184l-40,0 l0,80 l 40,0 
	c 14.237,0, 23.768-7.405, 28.182-11.819S 464,238.237, 464,224S 456.596,200.232, 452.182,195.818z"  />
<glyph unicode="&#xe09c;" d="M 432,480c-44.186,0-80-35.816-80-80l0-240 l 64,0 l0-192 l 96,0 L 512,400 C 512,444.184, 476.183,480, 432,480zM 208,480c-8.838,0-16-7.164-16-16l0-112 c0-4.418-7.164-8-16-8c-8.838,0-16,3.582-16,8L 160,464 c0,8.836-7.164,16-16,16
		c-8.837,0-16-7.164-16-16l0-112 c0-4.418-7.164-8-16-8c-8.837,0-16,3.582-16,8L 96,464 c0,8.836-7.164,16-16,16c-8.837,0-16-7.164-16-16l0-112 
		c0-4.418-7.164-8-16-8s-16,3.582-16,8L 32,464 c0,8.836-7.164,16-16,16S0,472.836,0,464l0-112 l0-32 c0-14.159, 12.529-22.055, 26.502-32
		C 44.107,275.468, 64,259.682, 64,224l0-256 l 96,0 L 160,224 c0,35.682, 19.893,51.468, 37.496,64C 211.469,297.945, 224,305.841, 224,320l0,32 L 224,464 
		C 224,472.836, 216.837,480, 208,480z"  />
<glyph unicode="&#xe09d;" d="M 358.774,480c-84.382-139.493-151.15-70.891-248.795-171.215c-86.168-88.533-56.291-195.153, 16.262-231.872
		c 71.615,36.594, 144.884,118.411, 199.225,236.862c0,0, 48.833-149.572-100.745-293.687c 72.634-85.074, 195.914-25.886, 230.363,109.459
		C 492.533,276.684, 394.89,426.495, 358.774,480zM 48.506-3.121C 48.564-4.574, 50.217-32, 86.189-32c 26.172,0, 158.916,72.339, 227.133,260.102
		C 210.103,45.495, 60.262,0.183, 48.506-3.121z"  />
<glyph unicode="&#xe09e;" d="M 352,448L 192,288L 96,288 L0,160c0,0, 101.708,28.326, 161.033,15.042L0-32l 210.951,164.072C 240.37,64.745, 192-32, 192-32l 128,96
	l0,96 l 160,160L 512,480L 352,448z"  />
<glyph unicode="&#xe09f;" d="M 256,448 C 397.385,448 512,333.385 512,192 C 512,95.604 458.712,11.667 379.996-32 L 132.004-32 C 530D8C0FBA53"  />
<glyph unicode="&#xe0a0;" d="M 256,480C 114.615,480,0,365.385,0,224s 114.615-256, 256-256s 256,114.615, 256,256S 397.385,480, 256,480z M 151.418,62.924
		C 156.971,78.24, 160,94.768, 160,112c0,62.175-39.405,115.146-94.604,135.303c 5.105,42.462, 24.127,81.749, 54.839,112.462
		C 156.5,396.028, 204.715,416, 256,416s 99.5-19.972, 135.765-56.235c 30.714-30.713, 49.734-70, 54.841-112.462
		C 391.405,227.146, 352,174.175, 352,112c0-17.234, 3.030-33.76, 8.583-49.075C 329.73,42.804, 293.698,32, 256,32
		C 218.303,32, 182.271,42.804, 151.418,62.924zM 275.877,159.502 C 282.816,157.755 288,151.462 288,144 L 288,112 C 288,103.2 280.8,96 272,96 L 240,96 C 231.2,96 224,103.2 224,112 L 224,144 C 224,151.462 229.184,157.755 236.123,159.502 L 248,384 L 264,384 L 275.877,159.502 Z"  />
<glyph unicode="&#xe0a1;" d="M 256,480C 114.615,480,0,365.385,0,224s 114.615-256, 256-256s 256,114.615, 256,256S 397.385,480, 256,480z M 256,32
		c-106.039,0-192,85.961-192,192c0,106.039, 85.961,192, 192,192c 106.039,0, 192-85.961, 192-192C 448,117.961, 362.039,32, 256,32zM 224,352A32,32 10980 1 1 288,352A32,32 10980 1 1 224,352zM 320,320A32,32 10980 1 1 384,320A32,32 10980 1 1 320,320zM 128,320A32,32 10980 1 1 192,320A32,32 10980 1 1 128,320zM 224,128L 224,96L 288,96L 288,128L 256,288 	z"  />
<glyph unicode="&#xe0a2;" d="M 505.087,22.125L 230.77,271.854l 12.767,12.799c 10.447,10.477, 16.094,24.015, 16.959,37.805
	c 0.501,0.225, 1.001,0.456, 1.479,0.721l 51.495,32.201c 6.967,8.196, 6.458,21.134-1.142,28.751L 222.768,473.935
	c-7.595,7.617-20.499,8.131-28.672,1.142l-32.118-51.634c-0.263-0.483-0.495-0.983-0.72-1.487
	c-13.751-0.868-27.25-6.528-37.699-17.003l-48.714-48.851c-10.449-10.478-16.092-24.013-16.959-37.802
	c-0.502-0.225-1.002-0.458-1.482-0.723L 4.911,285.374c-6.971-8.195-6.458-21.132, 1.138-28.748l 89.56-89.802
	c 7.597-7.619, 20.498-8.131, 28.675-1.143l 32.114,51.635c 0.264,0.479, 0.494,0.98, 0.721,1.483c 13.751,0.869, 27.252,6.525, 37.699,17.002
	l 14.146,14.186l 249.061-275.057c 7.218-7.972, 18.35-9.259, 24.737-2.856l 25.178,25.244
	C 514.322,3.722, 513.038,14.884, 505.087,22.125z"  />
<glyph unicode="&#xe0a3;" d="M 160.504-32 C 126.381,39.004 144.553,79.689 170.779,118.022 C 199.499,160 206.901,201.555 206.901,201.555 C 206.901,201.555 229.478,172.205 220.447,126.301 C 260.333,170.701 267.859,241.441 261.838,268.533 C 351.995,205.527 390.526,69.105 338.599-32 C 614.785,124.266 407.298,358.086 371.176,384.425 C 383.217,358.087 385.5,313.5 361.176,291.862 C 320,448 218.19,480 218.19,480 C 230.231,399.478 174.542,311.428 120.842,245.635 C 118.955,277.743 116.951,299.899 100.067,330.625 C 96.277,272.297 51.701,224.751 39.63,166.311 C 23.279,87.168 51.878,29.221 160.504-32 Z"  />
<glyph unicode="&#xe0a4;" d="M 478.145,77.759L 320,341.271L 320,448 l 16,0 c 8.8,0, 16,7.2, 16,16s-7.2,16-16,16L 176,480 c-8.8,0-16-7.2-16-16s 7.2-16, 16-16l 16,0 l0-106.729 
	L 33.856,77.759C-2.365,17.392, 25.6-32, 96-32l 320,0 C 486.4-32, 514.365,17.392, 478.145,77.759z M 120.519,160L 224,332.469L 224,448 l 64,0 
	l0-115.531 L 391.482,160L 120.519,160 z"  />
<glyph unicode="&#xe0a5;" d="M 429.751,466.729L 427.454,480L 304,480 l 3.301-18.771c 11.173-63.55, 37.161-218.268, 37.161-282.229c0-49.075-39.684-89-88.462-89
	c-48.778,0-88.461,39.925-88.461,89c0,63.963, 25.988,218.68, 37.162,282.229L 208,480L 84.546,480 l-2.297-13.271
	C 68.711,388.518, 46,247.136, 46,179c0-116.346, 94.206-211, 210-211c 115.794,0, 210,94.654, 210,211
	C 466,247.133, 443.289,388.516, 429.751,466.729z M 256,0c-98.149,0-178,80.299-178,179c0,40.386, 8.46,108.538, 18.083,173l 58.173,0 
	c-9.997-65.617-18.717-134.028-18.717-173c0-66.72, 54.039-121, 120.461-121c 66.423,0, 120.462,54.28, 120.462,121
	c0,38.971-8.721,107.382-18.718,173l 58.173,0 C 425.54,287.537, 434,219.384, 434,179C 434,80.299, 354.149,0, 256,0z"  />
<glyph unicode="&#xe0a6;" d="M 96-32L 416-32L 448,320L 64,320 	zM 320,416L 320,480 L 192,480 l0-64 L 32,416 l0-96 l 32,32l 384,0 l 32-32L 480,416 L 320,416 z M 288,416l-64,0 L 224,448 l 64,0 L 288,416 z"  />
<glyph unicode="&#xe0a7;" d="M 400,416L 112,416 c-26.51,0-48-21.49-48-48l0-16 l 384,0 l0,16 C 448,394.51, 426.51,416, 400,416zM 316.16,448l 7.058-50.5L 188.782,397.5 l 7.057,50.5L 316.16,448  M 320,480L 192,480 c-13.2,0-25.495-10.696-27.321-23.769l-9.357-66.962
	C 153.495,376.196, 162.8,365.5, 176,365.5l 160,0 c 13.2,0, 22.505,10.696, 20.679,23.769l-9.357,66.962C 345.495,469.304, 333.2,480, 320,480L 320,480z
	M 408,320L 104,320 c-17.6,0-30.696-14.341-29.103-31.869l 26.206-288.263C 102.696-17.659, 118.4-32, 136-32l 240,0 
	c 17.6,0, 33.304,14.341, 34.897,31.868l 26.205,288.263C 438.696,305.659, 425.6,320, 408,320z M 192,32l-48,0 l-16,224l 64,0 L 192,32 z M 288,32l-64,0 
	L 224,256 l 64,0 L 288,32 z M 368,32l-48,0 L 320,256 l 64,0 L 368,32z"  />
<glyph unicode="&#xe0a8;" d="M 480,352L 352,352 L 352,384 c0,17.6-14.4,32-32,32L 192,416 c-17.602,0-32-14.4-32-32l0-32 L 32,352 c-17.6,0-32-14.4-32-32l0-288 
	c0-17.601, 14.398-32, 32-32l 448,0 c 17.6,0, 32,14.399, 32,32L 512,320 C 512,337.6, 497.6,352, 480,352z M 192,383.942
	c 0.017,0.020, 0.037,0.041, 0.057,0.058l 127.886,0 c 0.021-0.017, 0.041-0.038, 0.059-0.058L 320.002,352 L 192,352 L 192,383.942 z M 480,224l-64,0 l0-48 
	c0-8.801-7.2-16-16-16l-32,0 c-8.802,0-16,7.199-16,16l0,48 L 160,224 l0-48 c0-8.801-7.2-16-16-16l-32,0 c-8.801,0-16,7.199-16,16l0,48 L 32,224 l0,32 l 448,0 
	L 480,224 z"  />
<glyph unicode="&#xe0a9;" d="M 384,160.016l-91.41,91.411L 512,416.002L 447.995,480l-274.26-109.721L 87.385,456.632C 62.495,481.521, 27.734,487.485, 10.134,469.886
	C-7.465,452.287-1.5,417.523, 23.389,392.636l 86.343-86.342L0,32.003L 63.995-32L 228.59,187.434l 91.413-91.414l0-127.99 L 384-31.97 
	l 31.996,95.994l 95.994,31.998l0,63.996 L 384,160.018 L 384,160.016 z"  />
<glyph unicode="&#xe0aa;" d="M 512,192l-64,128l-96,0 L 352,384 c0,17.6-14.4,32-32,32L 32,416 C 14.4,416,0,401.6,0,384l0-256 l 32-32l 40.583,0 C 67.134,86.584, 64,75.661, 64,64
	c0-35.346, 28.654-64, 64-64s 64,28.654, 64,64c0,11.661-3.134,22.584-8.583,32l 177.167,0 c-5.449-9.416-8.584-20.339-8.584-32
	c0-35.346, 28.654-64, 64-64s 64,28.654, 64,64c0,11.661-3.135,22.584-8.584,32L 512,96 L 512,192 z M 352,192l0,80 l 66.334,0 l 40-80L 352,192 z"  />
<glyph unicode="&#xe0ab;" d="M 352-32l 160,0 L 384,480l-96,0 l 16-128l-96,0 L 224,480l-96,0 L0-32l 160,0 l 16,128l 160,0 L 352-32z M 184,160l 16,128l 112,0 l 16-128L 184,160 z"  />
<glyph unicode="&#xe0ac;" d="M 480,384L 480,416L 256,352L 32,416L 32,384L 192,320L 192,192L 128-32L 160-32L 256,192L 352-32L 384-32L 320,192L 320,320 	zM 208,432A48,48 12780 1 1 304,432A48,48 12780 1 1 208,432z"  />
<glyph unicode="&#xe0ad;" d="M 512,256l-50.462,0 C 447.718,345.12, 377.12,415.718, 288,429.538L 288,480 l-64,0 l0-50.462 C 134.88,415.718, 64.282,345.12, 50.462,256L0,256 l0-64 
	l 50.462,0 C 64.282,102.88, 134.88,32.282, 224,18.462L 224-32 l 64,0 l0,50.462 C 377.12,32.282, 447.718,102.88, 461.538,192L 512,192 L 512,256 z M 396.411,256
	L 346.53,256 c-9.642,27.275-31.255,48.889-58.53,58.53l0,49.881 C 341.757,352.166, 384.166,309.756, 396.411,256z M 256,192
	c-17.673,0-32,14.327-32,32c0,17.673, 14.327,32, 32,32c 17.673,0, 32-14.327, 32-32C 288,206.327, 273.673,192, 256,192z M 224,364.411
	l0-49.881 c-27.275-9.641-48.889-31.255-58.53-58.53l-49.881,0 C 127.834,309.756, 170.244,352.166, 224,364.411z M 115.589,192l 49.881,0 
	c 9.641-27.275, 31.255-48.889, 58.53-58.53l0-49.881 C 170.244,95.834, 127.834,138.243, 115.589,192z M 288,83.589L 288,133.47 
	c 27.275,9.642, 48.889,31.255, 58.53,58.53l 49.881,0 C 384.166,138.243, 341.757,95.834, 288,83.589z"  />
<glyph unicode="&#xe0ae;" d="M 480,480L 256,416L 32,480c0,0-2.25-25.849,0-64l 224-70.045L 480,416C 482.249,454.151, 480,480, 480,480zM 36.095,382.447C 48.088,257.099, 92.84,46.33, 256-32c 163.16,78.33, 207.912,289.099, 219.905,414.447L 256,299.768
		L 36.095,382.447z"  />
<glyph unicode="&#xe0af;" d="M 192,480L0,224L 192,224L 64-32L 512,288L 256,288L 448,480 z"  />
<glyph unicode="&#xe0b0;" d="M 320,406.706l0-67.979 c 18.103-7.902, 34.75-19.204, 49.137-33.59C 399.358,274.917, 416,234.737, 416,192
		s-16.643-82.917-46.863-113.137C 338.917,48.643, 298.738,32, 256,32s-82.917,16.643-113.137,46.863
		C 112.643,109.083, 96,149.263, 96,192s 16.643,82.917, 46.863,113.137c 14.387,14.387, 31.034,25.689, 49.137,33.591L 192,406.706 
		C 99.476,379.166, 32,293.47, 32,192c0-123.712, 100.289-224, 224-224c 123.712,0, 224,100.288, 224,224
		C 480,293.47, 412.525,379.166, 320,406.706zM 224,480L 288,480L 288,224L 224,224z"  />
<glyph unicode="&#xe0b1;" d="M 512,338.75L 466.747,384L 377.374,294.624L 326.624,345.375L 415.999,434.75L 370.749,480L 281.374,390.625L 224,448L 180.687,404.688L 436.688,148.687L 480,191.999L 422.624,249.375 	zM 137.374,105.373c 82.884-82.881, 192.597-18.181, 259.646,37.732L 175.108,365.017
		C 119.196,297.969, 54.494,188.256, 137.374,105.373zM 95.999,127.998L 159.996,64L 64-31.996L 0.002,32.001z"  />
<glyph unicode="&#xe0b2;" d="M 224,82.745L 121.373,201.372L 150.627,230.627L 224,173.255L 361.372,294.627L 390.628,265.373 	zM 415.886,416c 0.039-0.033, 0.081-0.075, 0.114-0.115l0-383.771 c-0.033-0.039-0.075-0.081-0.114-0.114L 96.114,32 
	c-0.040,0.033-0.081,0.075-0.114,0.114L 96,415.886 c 0.033,0.040, 0.075,0.081, 0.115,0.114L 32,416 l0-384 c0-35.2, 28.8-64, 64-64l 320,0 
	c 35.2,0, 64,28.8, 64,64L 480,416 L 415.886,416 z M 320,416L 320,448 c0,17.673-14.327,32-32,32l-64,0 c-17.673,0-32-14.327-32-32l0-32 l-64,0 l0-64 l 256,0 L 384,416 L 320,416 z
	 M 288,416l-64,0 L 224,448 l 64,0 L 288,416 z"  />
<glyph unicode="&#xe0b3;" d="M0,480L 128,480L 128,352L0,352zM 192,448L 512,448L 512,384L 192,384zM0,288L 128,288L 128,160L0,160zM 192,256L 512,256L 512,192L 192,192zM0,96L 128,96L 128-32L0-32zM 192,64L 512,64L 512,0L 192,0z"  />
<glyph unicode="&#xe0b4;" d="M 192,448l 320,0 l0-64 L 192,384 L 192,448 z M 192,256l 320,0 l0-64 L 192,192 L 192,256 z M 192,64l 320,0 l0-64 L 192,0 L 192,64 zM0,416A64,64 2700 1 1 128,416A64,64 2700 1 1 0,416zM0,224A64,64 2700 1 1 128,224A64,64 2700 1 1 0,224zM0,32A64,64 2700 1 1 128,32A64,64 2700 1 1 0,32z"  />
<glyph unicode="&#xe0b5;" d="M 192,64L 512,64L 512,0L 192,0zM 192,256L 512,256L 512,192L 192,192zM 192,448L 512,448L 512,384L 192,384zM 96,480 L 96,352 L 64,352 L 64,448 L 32,448 L 32,480 ZM 64,217 L 64,192 L 128,192 L 128,160 L 32,160 L 32,233 L 96,263 L 96,288 L 32,288 L 32,320 L 128,320 L 128,247 ZM 128,128 L 128-32 L 32-32 L 32,0 L 96,0 L 96,32 L 32,32 L 32,64 L 96,64 L 96,96 L 32,96 L 32,128 Z"  />
<glyph unicode="&#xe0b6;" d="M0,288l 352,0 l0-64 L0,224 L0,288 z M0,384l 352,0 l0-64 L0,320 L0,384 z M0,192l 352,0 l0-64 L0,128 L0,192 z M0,96l 352,0 l0-64 L0,32 L0,96 z M 384,192l 64-96l 64,96L 384,192 z M 512,224
	l-64,96l-64-96L 512,224 z"  />
<glyph unicode="&#xe0b7;" d="M 32,384L 480,384L 480,288L 32,288zM 32,256L 480,256L 480,160L 32,160zM 32,128L 480,128L 480,32L 32,32z"  />
<glyph unicode="&#xe0b8;" d="M 488,96l-8,0 L 480,200 c0,30.878-25.121,56-56,56L 288,256 l0,64 l 8,0 c 13.2,0, 24,10.8, 24,24L 320,424 c0,13.2-10.8,24-24,24l-80,0 
	c-13.2,0-24-10.8-24-24l0-80 c0-13.2, 10.8-24, 24-24l 8,0 l0-64 L 88,256 c-30.878,0-56-25.122-56-56l0-104 l-8,0 c-13.2,0-24-10.8-24-24l0-80 
	c0-13.2, 10.8-24, 24-24l 80,0 c 13.2,0, 24,10.8, 24,24l0,80 c0,13.2-10.8,24-24,24l-8,0 l0,96 l 128,0 l0-96 l-8,0 c-13.2,0-24-10.8-24-24l0-80 
	c0-13.2, 10.8-24, 24-24l 80,0 c 13.2,0, 24,10.8, 24,24l0,80 c0,13.2-10.8,24-24,24l-8,0 l0,96 l 128,0 l0-96 l-8,0 c-13.2,0-24-10.8-24-24l0-80 
	c0-13.2, 10.8-24, 24-24l 80,0 c 13.2,0, 24,10.8, 24,24l0,80 C 512,85.2, 501.2,96, 488,96z M 96,0L 32,0 l0,64 l 64,0 L 96,0 z M 288,0l-64,0 l0,64 l 64,0 L 288,0 z
	 M 224,352L 224,416 l 64,0 l0-64 L 224,352 z M 480,0l-64,0 l0,64 l 64,0 L 480,0 z"  />
<glyph unicode="&#xe0b9;" d="M 512,151.229c0,41.045-28.339,75.45-66.498,84.74C 443.881,300.319, 391.273,352, 326.571,352
	c-37.896,0-71.633-17.747-93.427-45.366c-12.221,15.799-31.345,25.98-52.854,25.98c-36.905,0-66.821-29.937-66.821-66.861
	c0-3.218, 0.24-6.38, 0.682-9.477c-5.611,1.012-11.383,1.569-17.285,1.569C 43.367,257.846,0,214.452,0,160.924
	C0,107.393, 43.367,64, 96.865,64l 328.131,0 l0,0.006 C 473.065,64.098, 512,103.112, 512,151.229z"  />
<glyph unicode="&#xe0ba;" d="M 445.502,299.97C 443.881,364.319, 391.273,416, 326.571,416c-37.896,0-71.633-17.747-93.427-45.366
	c-12.221,15.799-31.345,25.98-52.854,25.98c-36.905,0-66.821-29.937-66.821-66.861c0-3.218, 0.24-6.38, 0.682-9.477
	c-5.611,1.012-11.383,1.569-17.285,1.569C 43.367,321.846,0,278.452,0,224.924C0,171.393, 43.367,128, 96.865,128l 49.88,0 L 256,18.745
	L 365.255,128l 59.741,0 l0,0.006 C 473.065,128.098, 512,167.112, 512,215.229C 512,256.274, 483.661,290.679, 445.502,299.97z M 256,64l-96,96
	l 64,0 l0,96 l 64,0 l0-96 l 64,0 L 256,64z"  />
<glyph unicode="&#xe0bb;" d="M 446.134,286.755C 447.356,292.31, 448,298.079, 448,304c0,44.183-35.817,80-80,80c-7.111,0-14.007-0.934-20.566-2.676
	C 335.035,420, 298.789,448, 256,448c-43.674,0-80.527-29.168-92.163-69.085C 152.466,382.226, 140.441,384, 128,384C 57.308,384,0,326.692,0,256
	c0-70.694, 57.308-128, 128-128l 64,0 l0-96 l 128,0 l0,96 l 112,0 c 44.183,0, 80,35.816, 80,80C 512,247.36, 483.573,280.081, 446.134,286.755z M 288,160l0-96 
	l-64,0 l0,96 l-80,0 l 112,112l 112-112L 288,160 z"  />
<glyph unicode="&#xe0bc;" d="M 448,224l-80,0 L 256,112L 144,224L 64,224 L0,96l0-32 l 512,0 l0,32 L 448,224z M0,32l 512,0 l0-32 L0,0 L0,32 z M 288,320L 288,448 l-64,0 l0-128 L 112,320 l 144-144l 144,144
	L 288,320 z"  />
<glyph unicode="&#xe0bd;" d="M0,32L 512,32L 512,0L0,0zM 512,96 L 512,64 L 0,64 L 0,96 L 64,224 L 192,224 L 192,160 L 320,160 L 320,224 L 448,224 ZM 112,320 L 256,464 L 400,320 L 288,320 L 288,192 L 224,192 L 224,320 Z"  />
<glyph unicode="&#xe0be;" d="M 368,256 L 240,128 L 112,256 L 192,256 L 192,448 L 288,448 L 288,256 ZM 240,128L0,128 l0-128 l 480,0 L 480,128 L 240,128 z M 448,64l-64,0 l0,32 l 64,0 L 448,64 z"  />
<glyph unicode="&#xe0bf;" d="M 240,128L0,128 l0-128 l 480,0 L 480,128 L 240,128 z M 448,64l-64,0 l0,32 l 64,0 L 448,64 zM 112,320 L 240,448 L 368,320 L 288,320 L 288,160 L 192,160 L 192,320 Z"  />
</font>
</defs>
</svg>
